Аккумулятор / Akumulator 1 (Ян Сверак / Jan Sverák) [1994, Чехия, фэнтези, комедия, HDTVRip] VO + Sub Rus, Eng + Original Cze


 

[Цитировать]

Аккумулятор / Akumulator 1
Страна: Чехия
Жанр: фэнтези, комедия
Год выпуска: 1994
Продолжительность: 01:42:07
Перевод: Одноголосый закадровый
Cубтитры: русские, английские
Оригинальная аудиодорожка: чешский

Режиссер: Ян Сверак / Jan Sverák
В ролях: Петр Форман, Эдита Брыхта, Зденек Сверак, Болек Поливка, Ладислав Смоляк, Матей Форман, Маркета Фрослова, Иван Выскочил, Мариан Лабуда
Описание: Главный герой фильма землемер Олда, которого играет сын Милоша Формана Петр Форман, страдает роковой потерей энергии. Причина в его двойнике-тени, который обитает в мире, простирающемся по ту сторону экрана телевизора. Только любовь помогает молодому герою избавиться от сетей телевизионного демона и стать на собственные ноги...
Качество видео: HDTVRip
Формат видео: AVI
Видео: 704x400 (1.76:1), 25 fps, XviD build 73 ~1807 kbps avg, 0.26 bit/pixel
Аудио: 48 kHz, AC3 Dolby Digital, 2/0 (L,R) ch, ~224 kbps - одноголосый
Аудио: 48 kHz, AC3 Dolby Digital, 2/0 (L,R) ch, ~224 kbps - оригинал (отдельным файлом)

MediaInfo

Общее
Полное имя : H:\Akumulator.1.1994.hdtvrip_[1.46]_[teko]\Akumulator.1.1994.hdtvrip_[1.46].avi
Формат : AVI
Формат/Информация : Audio Video Interleave
Размер файла : 1,46 Гбайт
Продолжительность : 1 ч. 42 м.
Общий поток : 2042 Кбит/сек
Программа кодирования : VirtualDubMod 1.5.10.3 | www.virtualdub-fr.org || (build 2550/release)
Библиотека кодирования : VirtualDubMod build 2550/release
Видео
Идентификатор : 0
Формат : MPEG-4 Visual
Профиль формата : Advanced Simple@L5
Параметр BVOP формата : 1
Параметр QPel формата : Нет
Параметр GMC формата : Без точки перехода
Параметр матрицы формата : Выборочная
Идентификатор кодека : XVID
Идентификатор кодека/Подсказка : XviD
Продолжительность : 1 ч. 42 м.
Битрейт : 1808 Кбит/сек
Ширина : 704 пикселя
Высота : 400 пикселей
Соотношение сторон : 16:9
Частота кадров : 25,000 кадров/сек
Цветовое пространство : YUV
Субдискретизация насыщенности : 4:2:0
Битовая глубина : 8 бит
Тип развёртки : Прогрессивная
Метод сжатия : С потерями
Бит/(Пиксели*Кадры) : 0.257
Размер потока : 1,29 Гбайт (89%)
Библиотека кодирования : XviD 73
Аудио
Идентификатор : 1
Формат : AC-3
Формат/Информация : Audio Coding 3
Расширение режима : CM (complete main)
Параметр Endianness формата : Big
Идентификатор кодека : 2000
Продолжительность : 1 ч. 42 м.
Вид битрейта : Постоянный
Битрейт : 224 Кбит/сек
Каналы : 2 канала
Расположение каналов : Front: L R
Частота : 48,0 КГц
Битовая глубина : 16 бит
Метод сжатия : С потерями
Размер потока : 164 Мбайт (11%)
Выравнивание : Разделение по промежуткам
Продолжительность промежутка : 40 мс. (1,00 видеокадр)
Время предзагрузки промежутка : 500 мс.



Показать сообщения:    

Текущее время: 10-Дек 08:00

Часовой пояс: UTC + 3


Вы не можете начинать темы
Вы не можете отвечать на сообщения
Вы не можете редактировать свои сообщения
Вы не можете удалять свои сообщения
Вы не можете голосовать в опросах
Вы не можете прикреплять файлы к сообщениям
Вы не можете скачивать файлы