Синатра: Все или Ничего / Sinatra: All or Nothing at All / Серии 1-2 (из 2) (Алекс Гибни / Alex Gibney) [2015, Документальный, HDTVRip-AVC] MVO (Эй Би Видео)


Статистика раздачи [Обновить пиров]
Размер:  3.05 GB   |    Зарегистрирован:  11 месяцев 18 дней   |    Скачан:  0 раз
Сидов:  13  [  0 KB/s  ]   Личеров:  3  [  0 KB/s  ]   Подробная статистика пиров
 
   
 
 

[Цитировать]

Синатра: Все или Ничего / Sinatra: All or Nothing at All- Год выпуска: 2015
Страна: США | HBO Documentary Films
Жанр: Документальный
Продолжительность: 3:51:48
Перевод: Профессиональный (многоголосый закадровый) | "Эй Би Видео" по заказу "Первого Канала"
Операторы: Антонио Росси, Сэмюэл Пэйнтер
Режиссер и автор сценария: Алекс Гибни / Alex Gibney-Описание: "Синатра: Все или ничего" - подробнейшее исследование жизни и карьеры легендарного американского исполнителя. История жизни, рассказанная его собственными словами в многочисленных интервью и дополненная комментариями близких Синатре людей. Фильм буквально соткан из музыки и картин из жизни Синатры вместе с редкими кадрами из его знаменитого "Прощального концерта", прошедшего в 1971 году в Лос-Анджелесе. Сюжет картины строится на песнях певца, выбранных им самим для того самого выступления.- -Автор рипа: lrn
Автор записи: Alexin29
Сэмпл: sendfile-Тип релиза: HDTVRip-AVC
Контейнер: MKV
Видео: 1024x576 (16:9), 25,000 fps, H264, ~1500 kbps avg, ~0.102 bit/pixel
Аудио: 48 kHz, AC3 Dolby Digital, 3/2 (L,C,R,l,r) + LFE ch, ~384.00 kbps avg-

Список серий

Серия №1 - "Part 1" (1:51:16)Серия №1 - "Part 2" (2:00:32)

MediaInfoSinatra.All.or.Nothing.at.All.s01e01.HDTVRip-AVC.x264-RUS-lrn.mkv

GeneralUnique ID : 251608639077193206072889664481024916493 (0xBD4A0FAC8AB25503B8B00A7FE2A5BC0D)Complete name : E:\uTorrent.Temp\Temp\Sinatra.All.or.Nothing.at.All.s01.HDTVRip-AVC.x264-RUS-lrn\Sinatra.All.or.Nothing.at.All.s01e01.HDTVRip-AVC.x264-RUS-lrn.mkvFormat : MatroskaFormat version : Version 4 / Version 2File size : 1.47 GiBDuration : 1h 51mnOverall bit rate : 1 886 KbpsMovie name : Sinatra.All.or.Nothing.at.All.s01.HDTVRip-AVC.x264-RUS-lrnEncoded date : UTC 2010-02-22 21:41:31Writing application : mkvmerge v5.9.0 ('On The Loose') built on Dec 9 2012 15:37:01Writing library : libebml v1.3.0 + libmatroska v1.4.0
VideoID : 1Format : AVCFormat/Info : Advanced Video CodecFormat profile : High@L4.1Format settings, CABAC : YesFormat settings, ReFrames : 8 framesCodec ID : V_MPEG4/ISO/AVCDuration : 1h 51mnBit rate : 1 500 KbpsWidth : 1 024 pixelsHeight : 576 pixelsDisplay aspect ratio : 16:9Frame rate mode : ConstantFrame rate : 25.000 fpsColor space : YUVChroma subsampling : 4:2:0Bit depth : 8 bitsScan type : ProgressiveBits/(Pixel*Frame) : 0.102Stream size : 1.14 GiB (78%)Writing library : x264 core 148 r2638 7599210Encoding settings : cabac=1 / ref=8 / deblock=1:-3:-3 / analyse=0x3:0x133 / me=umh / subme=9 / psy=1 / psy_rd=1.00:0.00 / mixed_ref=1 / me_range=32 / chroma_me=1 / trellis=2 / 8x8dct=1 / cqm=0 / deadzone=21,11 / fast_pskip=1 / chroma_qp_offset=-2 / threads=12 / lookahead_threads=2 / sliced_threads=0 / nr=0 / decimate=1 / interlaced=0 / bluray_compat=0 / constrained_intra=0 / bframes=8 / b_pyramid=2 / b_adapt=2 / b_bias=0 / direct=3 / weightb=1 / open_gop=0 / weightp=2 / keyint=250 / keyint_min=25 / scenecut=40 / intra_refresh=0 / rc_lookahead=50 / rc=2pass / mbtree=1 / bitrate=1500 / ratetol=1.0 / qcomp=0.60 / qpmin=0 / qpmax=69 / qpstep=4 / cplxblur=20.0 / qblur=0.5 / vbv_maxrate=62500 / vbv_bufsize=78125 / nal_hrd=none / filler=0 / ip_ratio=1.40 / aq=1:1.00Default : YesForced : NoStatistics Tags Issue : mkvmerge v8.5.2 ('Crosses') 32bit 2015-12-15 16:02:35 / mkvmerge v5.9.0 ('On The Loose') built on Dec 9 2012 15:37:01 2010-02-22 21:41:31FromStats_BitRate : 1500201FromStats_Duration : 01:51:16.320000000FromStats_FrameCount : 166908FromStats_StreamSize : 1251977997
AudioID : 2Format : AC-3Format/Info : Audio Coding 3Mode extension : CM (complete main)Format settings, Endianness : BigCodec ID : A_AC3Duration : 1h 51mnBit rate mode : ConstantBit rate : 384 KbpsChannel(s) : 6 channelsChannel positions : Front: L C R, Side: L R, LFESampling rate : 48.0 KHzFrame rate : 31.250 fps (1536 spf)Compression mode : LossyStream size : 306 MiB (20%)Language : RussianDefault : YesForced : No

Sinatra.All.or.Nothing.at.All.s01e02.HDTVRip-AVC.x264-RUS-lrn.mkv

GeneralUnique ID : 178303713505791174588055413861725023003 (0x86240BCD7277E5BEB15EC5834130AB1B)Complete name : E:\uTorrent.Temp\Temp\Sinatra.All.or.Nothing.at.All.s01.HDTVRip-AVC.x264-RUS-lrn\Sinatra.All.or.Nothing.at.All.s01e02.HDTVRip-AVC.x264-RUS-lrn.mkvFormat : MatroskaFormat version : Version 4 / Version 2File size : 1.59 GiBDuration : 2h 0mnOverall bit rate : 1 886 KbpsMovie name : Sinatra.All.or.Nothing.at.All.s01.HDTVRip-AVC.x264-RUS-lrnEncoded date : UTC 2010-02-22 21:41:31Writing application : mkvmerge v5.9.0 ('On The Loose') built on Dec 9 2012 15:37:01Writing library : libebml v1.3.0 + libmatroska v1.4.0
VideoID : 1Format : AVCFormat/Info : Advanced Video CodecFormat profile : High@L4.1Format settings, CABAC : YesFormat settings, ReFrames : 8 framesCodec ID : V_MPEG4/ISO/AVCDuration : 2h 0mnBit rate : 1 500 KbpsWidth : 1 024 pixelsHeight : 576 pixelsDisplay aspect ratio : 16:9Frame rate mode : ConstantFrame rate : 25.000 fpsColor space : YUVChroma subsampling : 4:2:0Bit depth : 8 bitsScan type : ProgressiveBits/(Pixel*Frame) : 0.102Stream size : 1.23 GiB (78%)Writing library : x264 core 148 r2638 7599210Encoding settings : cabac=1 / ref=8 / deblock=1:-3:-3 / analyse=0x3:0x133 / me=umh / subme=9 / psy=1 / psy_rd=1.00:0.00 / mixed_ref=1 / me_range=32 / chroma_me=1 / trellis=2 / 8x8dct=1 / cqm=0 / deadzone=21,11 / fast_pskip=1 / chroma_qp_offset=-2 / threads=12 / lookahead_threads=2 / sliced_threads=0 / nr=0 / decimate=1 / interlaced=0 / bluray_compat=0 / constrained_intra=0 / bframes=8 / b_pyramid=2 / b_adapt=2 / b_bias=0 / direct=3 / weightb=1 / open_gop=0 / weightp=2 / keyint=250 / keyint_min=25 / scenecut=40 / intra_refresh=0 / rc_lookahead=50 / rc=2pass / mbtree=1 / bitrate=1500 / ratetol=1.0 / qcomp=0.60 / qpmin=0 / qpmax=69 / qpstep=4 / cplxblur=20.0 / qblur=0.5 / vbv_maxrate=62500 / vbv_bufsize=78125 / nal_hrd=none / filler=0 / ip_ratio=1.40 / aq=1:1.00Default : YesForced : NoStatistics Tags Issue : mkvmerge v8.5.2 ('Crosses') 32bit 2015-12-15 18:20:49 / mkvmerge v5.9.0 ('On The Loose') built on Dec 9 2012 15:37:01 2010-02-22 21:41:31FromStats_BitRate : 1500091FromStats_Duration : 02:00:32.640000000FromStats_FrameCount : 180816FromStats_StreamSize : 1356203153
AudioID : 2Format : AC-3Format/Info : Audio Coding 3Mode extension : CM (complete main)Format settings, Endianness : BigCodec ID : A_AC3Duration : 2h 0mnBit rate mode : ConstantBit rate : 384 KbpsChannel(s) : 6 channelsChannel positions : Front: L C R, Side: L R, LFESampling rate : 48.0 KHzFrame rate : 31.250 fps (1536 spf)Compression mode : LossyStream size : 331 MiB (20%)Language : RussianDefault : YesForced : No

x264 logSinatra.All.or.Nothing.at.All.s01e01.HDTVRip-AVC.x264-RUS-lrn.mkv

raw [info]: 1024x576p 1:1 @ 25/1 fps (cfr)x264 [info]: using SAR=1/1x264 [info]: using cpu capabilities: MMX2 SSE2Fast SSSE3 SSE4.2 AVXx264 [info]: profile High, level 4.1x264 [info]: frame I:1162 Avg QP:13.74 size: 82187x264 [info]: frame P:39592 Avg QP:17.73 size: 16949x264 [info]: frame B:126154 Avg QP:20.37 size: 3848x264 [info]: consecutive B-frames: 2.0% 2.3% 3.0% 60.3% 6.5% 15.5% 2.3% 6.3% 1.9%x264 [info]: mb I I16..4: 13.3% 67.8% 19.0%x264 [info]: mb P I16..4: 0.6% 4.9% 0.4% P16..4: 36.0% 15.5% 13.2% 0.4% 0.2% skip:28.8%x264 [info]: mb B I16..4: 0.0% 0.5% 0.0% B16..8: 28.1% 4.8% 1.0% direct: 3.4% skip:62.1% L0:41.3% L1:48.4% BI:10.4%x264 [info]: 8x8 transform intra:78.9% inter:66.5%x264 [info]: direct mvs spatial:94.5% temporal:5.5%x264 [info]: coded y,uvDC,uvAC intra: 79.5% 15.8% 7.1% inter: 16.8% 4.5% 0.2%x264 [info]: i16 v,h,dc,p: 63% 11% 6% 20%x264 [info]: i8 v,h,dc,ddl,ddr,vr,hd,vl,hu: 14% 11% 11% 8% 11% 12% 11% 11% 12%x264 [info]: i4 v,h,dc,ddl,ddr,vr,hd,vl,hu: 16% 10% 5% 8% 13% 13% 11% 11% 12%x264 [info]: i8c dc,h,v,p: 86% 6% 4% 3%x264 [info]: Weighted P-Frames: Y:8.4% UV:0.4%x264 [info]: ref P L0: 53.6% 12.8% 13.9% 6.3% 4.3% 3.7% 2.9% 2.1% 0.3% 0.0%x264 [info]: ref B L0: 78.9% 10.2% 4.8% 2.4% 1.9% 1.2% 0.6%x264 [info]: ref B L1: 94.6% 5.4%x264 [info]: kb/s:1500.20encoded 166908 frames, 34.79 fps, 1500.20 kb/s

Sinatra.All.or.Nothing.at.All.s01e02.HDTVRip-AVC.x264-RUS-lrn.mkv

raw [info]: 1024x576p 1:1 @ 25/1 fps (cfr)x264 [info]: using SAR=1/1x264 [info]: using cpu capabilities: MMX2 SSE2Fast SSSE3 SSE4.2 AVXx264 [info]: profile High, level 4.1x264 [info]: frame I:1233 Avg QP:14.68 size: 66534x264 [info]: frame P:42672 Avg QP:18.95 size: 15341x264 [info]: frame B:136911 Avg QP:21.18 size: 4525x264 [info]: consecutive B-frames: 1.7% 2.6% 3.9% 57.5% 8.0% 16.4% 2.3% 6.4% 1.3%x264 [info]: mb I I16..4: 16.3% 68.8% 14.8%x264 [info]: mb P I16..4: 1.0% 6.9% 0.5% P16..4: 35.6% 13.7% 11.6% 0.3% 0.1% skip:30.3%x264 [info]: mb B I16..4: 0.1% 0.7% 0.0% B16..8: 30.0% 5.7% 1.2% direct: 4.1% skip:58.3% L0:42.8% L1:48.0% BI: 9.2%x264 [info]: 8x8 transform intra:80.0% inter:73.9%x264 [info]: direct mvs spatial:94.7% temporal:5.3%x264 [info]: coded y,uvDC,uvAC intra: 76.6% 31.6% 14.1% inter: 17.6% 8.9% 0.4%x264 [info]: i16 v,h,dc,p: 56% 12% 6% 26%x264 [info]: i8 v,h,dc,ddl,ddr,vr,hd,vl,hu: 13% 10% 8% 8% 12% 13% 12% 12% 12%x264 [info]: i4 v,h,dc,ddl,ddr,vr,hd,vl,hu: 15% 10% 5% 8% 13% 14% 12% 11% 12%x264 [info]: i8c dc,h,v,p: 72% 10% 9% 8%x264 [info]: Weighted P-Frames: Y:7.0% UV:1.1%x264 [info]: ref P L0: 52.6% 12.3% 14.5% 6.4% 4.6% 3.8% 3.2% 2.3% 0.3% 0.0%x264 [info]: ref B L0: 78.2% 10.4% 5.0% 2.5% 2.0% 1.2% 0.6%x264 [info]: ref B L1: 94.3% 5.7%x264 [info]: kb/s:1500.09encoded 180816 frames, 31.69 fps, 1500.09 kb/s

Скриншоты

-
[teatrix.ru].t12240.torrent 
Торрент: Зарегистрирован [ 2015-12-17 01:15 ] · E0CB84FED9ABAA6559F8C8BBD412D109E8B16EF8

Скачать .torrent

Скачать

16 KB

Статус: проверено
Скачан: 0 раз
Размер: 3.05 GB
terms.php



Быстрый ответ

Имя:

      
Для отправки сообщений необходимо включить JavaScript
Показать сообщения:    

Текущее время: 04-Дек 19:22

Часовой пояс: UTC + 3


Вы можете начинать темы
Вы можете отвечать на сообщения
Вы не можете редактировать свои сообщения
Вы не можете удалять свои сообщения
Вы не можете голосовать в опросах
Вы не можете прикреплять файлы к сообщениям
Вы можете скачивать файлы