Прекрасная пленница / La Belle Captive (Ален Роб-Грийе / Alain Robbe-Grillet) [1983, Франция, драма, HDRip] MVO (Петербург-Пятый канал) + MVO + Sub Rus + Original Fre


 

[Цитировать]

Прекрасная пленница / La Belle Captive
Страна: Франция
Жанр: драма
Год выпуска: 1983
Продолжительность: 01:28:25
Перевод: Профессиональный (многоголосый закадровый) - Петербург - Пятый канал
Перевод: Профессиональный (многоголосый закадровый)
Cубтитры: русские
Оригинальная аудиодорожка: французский

Режиссер: Ален Роб-Грийе / Alain Robbe-Grillet
В ролях: Даниэль Месгиш, Сирил Клер, Даниэль Эмильфорк, Франсуа Шометт, Габриель Лазюр, Жиль Арбона, Ариель Домбаль, Жан-Клод Легэ, Нанси Ван Слик, Дени Фукере
Описание: Некто Вальтер знакомится в баре с незнакомкой, которая, оказывается, была убита 6 лет назад на вилле своего жениха — графа Коринфского. Тут же Вальтера отправляют к самому графу передать конверт, и новые мистические приключения ему обеспечены…
Качество видео: HDRip [Prekrasnaya_Plennitsa.1983.BDRip720p]
Формат видео: AVI
Видео: 720x432 (1.67:1), 23.976 fps, XviD build 73 ~2185 kbps avg, 0.29 bit/pixel
Аудио: 48 kHz, AC3 Dolby Digital, 2/0 (L,R) ch, ~160 kbps - 5 канал
отдельными файлами:
Аудио: 48 kHz, AC3 Dolby Digital, 2/0 (L,R) ch, ~192 kbps - многоголосый
Аудио: 48 kHz, AC3 Dolby Digital, 2/0 (L,R) ch, ~192 kbps - оригинал

MediaInfo

Общее
Полное имя : H:\La.Belle.Captive.1983.hdrip_[1.46]_[teko]\La.Belle.Captive.1983.hdrip_[1.46].avi
Формат : AVI
Формат/Информация : Audio Video Interleave
Размер файла : 1,45 Гбайт
Продолжительность : 1 ч. 28 м.
Общий поток : 2355 Кбит/сек
Программа кодирования : VirtualDubMod 1.5.10.3 | www.virtualdub-fr.org || (build 2550/release)
Библиотека кодирования : VirtualDubMod build 2550/release
Видео
Идентификатор : 0
Формат : MPEG-4 Visual
Профиль формата : Advanced Simple@L5
Параметр BVOP формата : 1
Параметр QPel формата : Нет
Параметр GMC формата : Без точки перехода
Параметр матрицы формата : Выборочная
Идентификатор кодека : XVID
Идентификатор кодека/Подсказка : XviD
Продолжительность : 1 ч. 28 м.
Битрейт : 2186 Кбит/сек
Ширина : 720 пикселей
Высота : 432 пикселя
Соотношение сторон : 1,667
Частота кадров : 23,976 кадра/сек
Цветовое пространство : YUV
Субдискретизация насыщенности : 4:2:0
Битовая глубина : 8 бит
Тип развёртки : Прогрессивная
Метод сжатия : С потерями
Бит/(Пиксели*Кадры) : 0.293
Размер потока : 1,35 Гбайт (93%)
Библиотека кодирования : XviD 73
Аудио
Идентификатор : 1
Формат : AC-3
Формат/Информация : Audio Coding 3
Расширение режима : CM (complete main)
Параметр Endianness формата : Big
Идентификатор кодека : 2000
Продолжительность : 1 ч. 28 м.
Вид битрейта : Постоянный
Битрейт : 160 Кбит/сек
Каналы : 2 канала
Расположение каналов : Front: L R
Частота : 48,0 КГц
Битовая глубина : 16 бит
Метод сжатия : С потерями
Размер потока : 101 Мбайт (7%)
Выравнивание : Разделение по промежуткам
Продолжительность промежутка : 42 мс. (1,00 видеокадр)
Время предзагрузки промежутка : 500 мс.



Показать сообщения:    

Текущее время: 09-Дек 20:30

Часовой пояс: UTC + 3


Вы не можете начинать темы
Вы не можете отвечать на сообщения
Вы не можете редактировать свои сообщения
Вы не можете удалять свои сообщения
Вы не можете голосовать в опросах
Вы не можете прикреплять файлы к сообщениям
Вы не можете скачивать файлы