Холстомер (Руслан Кудашов) [2008 г., история лошади, SATRip] Большой Театр Кукол, г. Санкт-Петербург


 

[Цитировать]

Холстомер Название театра: Большой Театр Кукол, г. Санкт-Петербург.
Год выпуска: 2008.
Жанр: история лошади.
Продолжительность: 01:02:06.
Режиссер-постановщик: Руслан Кудашов.
В ролях: Петр Васильев, Борис Матвеев, Александр Куприянов, Денис Пьянов, Ольга Гапоненко, Татьяна Баркова.
О спектакле:
В спектакле притчевое начало толстовской повести во многом усилено. Понятно, что и Толстой писал, по сути, не "историю лошади" по кличке Холстомер, а "жизнь человека" - с ее неизменными стадиями. Рождение, взросление, страсть, лишения, болезни и, наконец, смерть. Но если в повести принципиальна изначальная инаковость Холстомера (он родился пегим, "подпорченным"), ставшая причиной его трагической судьбы, то режиссер Кудашов стремится к более универсальному обобщению. Он, кажется, говорит о душе вообще - всякого человека. И подзаголовок его спектакля - "хроника спасения одной души".
Дополнительная информация:
Страна: Россия .
Выпущено: Культура.рф.
Автор: Лев Толстой.
Художник: Андрей Запорожский.
Музыкальное оформление: Владимир Бычковский.
Хореограф: Ирина Ляховская.
Художник по свету: Денис Солнцев.
Концертмейстер: Светлана Бортова.
Награды и номинации:
• Гран-при Международного фестиваля «Два-мало, три-много» (г.Пловдив, Болгария 2008г.),
• Дипломант фестиваля «Ученики мастера» Санкт-Петербург 2008г.,
• Номинант Высшей национальной премии «Золотая маска» (сезон 2007-2008 г.) во всех четырех номинациях,
• Артист Петр Васильев стал лауреатом Национальной премии «Золотая маска» в номинации «лучшая мужская роль в театре кукол»,
• В 2008г. Большой театр кукол за создание спектакля «Холстомер» удостоен Диплома Губернатора III степени (премия правительства СПб в области литературы, искусства и архитектуры),
• В октябре 2012 года спектакль был показан в Нью-Йорке в Центре Барышникова.
Сайт театра.
О спектакле.
Релиз

Качество видео:...SATRip
Формат:.................AVI
Видео:..720x400 (1.80:1), 25 fps, XviD MPEG-4 ~1438 kbps avg, 0.20 bit/pixel
Аудио:..48 kHz, MPEG Layer 3, 2 ch, ~128.00 kbps avg

Отчет Media Info

General
Complete name : Holstomer_Bol'shoj.teatr.kukol.2008.XviD.SATRip.fenixclub.avi
Format : AVI
Format/Info : Audio Video Interleave
File size : 700 MiB
Duration : 1h 2mn
Overall bit rate : 1 577 Kbps
Writing application : VirtualDubModRus 1.5.10.2 (build 2542/release)
Writing library : VirtualDub build 32842/release
Video
ID : 0
Format : MPEG-4 Visual
Format profile : Advanced Simple@L5
Format settings, BVOP : 2
Format settings, QPel : No
Format settings, GMC : No warppoints
Format settings, Matrix : Default (MPEG)
Codec ID : XVID
Codec ID/Hint : XviD
Duration : 1h 2mn
Bit rate : 1 439 Kbps
Width : 720 pixels
Height : 400 pixels
Display aspect ratio : 16:9
Frame rate : 25.000 fps
Color space : YUV
Chroma subsampling : 4:2:0
Bit depth : 8 bits
Scan type : Progressive
Compression mode : Lossy
Bits/(Pixel*Frame) : 0.200
Stream size : 639 MiB (91%)
Writing library : XviD 73
Audio
ID : 1
Format : MPEG Audio
Format version : Version 1
Format profile : Layer 3
Mode : Joint stereo
Mode extension : MS Stereo
Codec ID : 55
Codec ID/Hint : MP3
Duration : 1h 2mn
Bit rate mode : Constant
Bit rate : 128 Kbps
Channel(s) : 2 channels
Sampling rate : 48.0 KHz
Compression mode : Lossy
Stream size : 56.9 MiB (8%)
Alignment : Split accross interleaves
Interleave, duration : 40 ms (1.00 video frame)
Interleave, preload duratio : 500 ms.

Скриншоты

Альтернативный хост




Показать сообщения:    

Текущее время: 10-Дек 04:12

Часовой пояс: UTC + 3


Вы не можете начинать темы
Вы не можете отвечать на сообщения
Вы не можете редактировать свои сообщения
Вы не можете удалять свои сообщения
Вы не можете голосовать в опросах
Вы не можете прикреплять файлы к сообщениям
Вы не можете скачивать файлы