(Classical) Giulio Caccini - L'Euridice - Frigato, Zanasi, Fagotto, Dordolo, Mingardo, Piccinini, Abete; Concerto Italiano, Rinaldo Alessandrini - 2013, FLAC (image+.cue) lossless


 

[Цитировать]

Giulio Caccini - L'Euridice - Frigato, Zanasi, Fagotto, Dordolo, Mingardo, Piccinini, Abete; Concerto Italiano, Rinaldo Alessandrini
Жанр: Classical
Страна-производитель диска: France
Год издания диска: 2013
Издатель (лейбл): Naive
Номер по каталогу: OP30552
Дата записи: 2013
Аудиокодек: FLAC
Тип рипа: image+.cue
Битрейт аудио: lossless
Продолжительность: 79:21
Источник: собственный рип
Наличие сканов в содержимом раздачи: да
Треклист:
Giulio Caccini (1551-1618)
L'Euridice
Composta in musica in stile rappresentativo
Firenze, 1600
Libretto by Ottavio Rinuccini
[1] [Sinfonia]
[2] Prologo
Atto Unico
[3]-[5] Scena 1
[6]-[9] Scena 2
[10]-[11] Scena 3
[12]-[16] Scena 4
[17]-[18] Scena 5
[19]-[20] Scena 6
Исполнители:
Euridice & La Tragedia Silvia Frigato soprano
Orfeo Furio Zanasi baritone
Arcetro Gianpaolo Fagotto tenor
Tirsi & Aminta Luca Dordolo tenor
Dafne & Proserpina Sara Mingardo contralto
Venere Monica Piccinini soprano
Plutone Antonio Abete bass
Radamanto Matteo Bellotto bass
Caronte Mauro Borgioni baritone
Ninfe Monica Piccinini, Anna Simboli
Pastori e Spiriti Matteo Bellotto, Mauro Borgioni, Raffaele Giordani, Marco Scavazza
Concerto Italiano
Rinaldo Alessandrini
harpsichord, organ & conductor

Лог создания рипа

Exact Audio Copy V1.0 beta 3 from 29. August 2011
EAC extraction logfile from 13. April 2015, 1:47
Concerto Italiano, Rinaldo Alessandrini / Caccini - L'Euridice
Used drive : HL-DT-STDVDRAM GU70N Adapter: 0 ID: 0
Read mode : SecureUtilize accurate stream : YesDefeat audio cache : YesMake use of C2 pointers : No
Read offset correction : 48Overread into Lead-In and Lead-Out : NoFill up missing offset samples with silence : YesDelete leading and trailing silent blocks : NoNull samples used in CRC calculations : YesUsed interface : Native Win32 interface for Win NT & 2000
Used output format : User Defined EncoderSelected bitrate : 128 kBit/sQuality : HighAdd ID3 tag : NoCommand line compressor : C:\Program Files (x86)\Exact Audio Copy\Flac\flac.exeAdditional command line options : -V -8 -T "Date=%year%" -T "Genre=%genre%" %source%
TOC of the extracted CD
Track | Start | Length | Start sector | End sector --------------------------------------------------------- 1 | 0:00.00 | 1:18.67 | 0 | 5916 2 | 1:18.67 | 4:01.10 | 5917 | 24001 3 | 5:20.02 | 3:17.30 | 24002 | 38806 4 | 8:37.32 | 2:30.39 | 38807 | 50095 5 | 11:07.71 | 4:18.15 | 50096 | 69460 6 | 15:26.11 | 5:35.74 | 69461 | 94659 7 | 21:02.10 | 7:28.46 | 94660 | 128305 8 | 28:30.56 | 1:27.74 | 128306 | 134904 9 | 29:58.55 | 8:16.49 | 134905 | 172153 10 | 38:15.29 | 4:41.52 | 172154 | 193280 11 | 42:57.06 | 2:53.66 | 193281 | 206321 12 | 45:50.72 | 2:11.56 | 206322 | 216202 13 | 48:02.53 | 3:58.67 | 216203 | 234119 14 | 52:01.45 | 5:10.08 | 234120 | 257377 15 | 57:11.53 | 5:37.12 | 257378 | 282664 16 | 62:48.65 | 2:42.23 | 282665 | 294837 17 | 65:31.13 | 3:58.58 | 294838 | 312745 18 | 69:29.71 | 4:02.41 | 312746 | 330936 19 | 73:32.37 | 4:40.59 | 330937 | 351995 20 | 78:13.21 | 1:07.18 | 351996 | 357038
Range status and errors
Selected range
Filename C:\temp\OP30552 - Caccini - L'Euridice\Caccini - L'Euridice.wav
Peak level 100.0 % Extraction speed 2.3 X Range quality 100.0 % Test CRC FD2844CA Copy CRC FD2844CA Copy OK
No errors occurred
AccurateRip summary
Track 1 accurately ripped (confidence 3) [948F3F85] (AR v2)Track 2 accurately ripped (confidence 3) [C9A9A343] (AR v2)Track 3 accurately ripped (confidence 3) [23BFE867] (AR v2)Track 4 accurately ripped (confidence 3) [6F3269F2] (AR v2)Track 5 accurately ripped (confidence 3) [52B2C20F] (AR v2)Track 6 accurately ripped (confidence 3) [34D12CAF] (AR v2)Track 7 accurately ripped (confidence 3) [4EF7A8C5] (AR v2)Track 8 accurately ripped (confidence 3) [98FAC2FB] (AR v2)Track 9 accurately ripped (confidence 3) [A8419DC5] (AR v2)Track 10 accurately ripped (confidence 3) [5A5B8765] (AR v2)Track 11 accurately ripped (confidence 3) [F47D4CF5] (AR v2)Track 12 accurately ripped (confidence 3) [3076605E] (AR v2)Track 13 accurately ripped (confidence 3) [A8F404F4] (AR v2)Track 14 accurately ripped (confidence 3) [3A0DF499] (AR v2)Track 15 accurately ripped (confidence 3) [45F47281] (AR v2)Track 16 accurately ripped (confidence 3) [477ECBA6] (AR v2)Track 17 accurately ripped (confidence 3) [72B8B8A8] (AR v2)Track 18 accurately ripped (confidence 3) [B546EBB6] (AR v2)Track 19 accurately ripped (confidence 3) [F5871936] (AR v2)Track 20 accurately ripped (confidence 3) [0E0B8AFE] (AR v2)
All tracks accurately ripped
End of status report
==== Log checksum 9A4934CA97B852FD7CB5CA773F28E0BFC1DCA0637948C6906391125BC14CDB9E ====



Показать сообщения:    

Текущее время: 10-Дек 06:08

Часовой пояс: UTC + 3


Вы не можете начинать темы
Вы не можете отвечать на сообщения
Вы не можете редактировать свои сообщения
Вы не можете удалять свои сообщения
Вы не можете голосовать в опросах
Вы не можете прикреплять файлы к сообщениям
Вы не можете скачивать файлы