(Classical Crossover, Operatic Pop) Andrea Bocelli - My Christmas (2015 Digital Remaster) - 2009, FLAC (image+.cue) lossless


 

[Цитировать]

Andrea Bocelli / My Christmas (2015 Digital Remaster)
Жанр: Classical Crossover, Operatic Pop, Christmas
Страна-производитель диска: EU
Год издания диска: 2009
Издатель (лейбл): Sugar S.R.L.
Номер по каталогу: 0602547308153
Страна: Italy
Аудиокодек: FLAC
Тип рипа: image+.cue
Битрейт аудио: lossless
Продолжительность: 55:04
Источник: собственный рип
Наличие сканов в содержимом раздачи: да (300dpi)
Треклист:
01. White Christmas (Bianco Natale)
02. Angels We Have Heard On High
03. Santa Claus Is Coming To Town
04. The Christmas Song (with Natalie Cole)
05. The Lord's Prayer (with Mormon Tabernacle Choir)
06. What Child Is This (with Mary J. Blige)
07. Adeste Fideles
08. O Tannenbaum
09. Jingle Bells (with The Muppets)
10. Blue Christmas (with Reba McEntire)
11. Cantique De Noel
12. Caro Gesu' Bambino
13. I Believe (with Katherine Jenkins)
14. God Bless Us Everyone

Лог создания рипа

Exact Audio Copy V1.1 from 23. June 2015
Отчёт EAC об извлечении, выполненном 16. декабря 2015, 17:37
Andrea Bocelli / My Christmas
Дисковод: TSSTcorpCDDVDW SH-224DB Adapter: 1 ID: 0
Режим чтения : ДостоверностьИспользование точного потока : ДаОтключение кэша аудио : ДаИспользование указателей C2 : Нет
Коррекция смещения при чтении : 6Способность читать области Lead-in и Lead-out : НетЗаполнение пропущенных сэмплов тишиной : ДаУдаление блоков с тишиной в начале и конце : НетПри вычислениях CRC использовались нулевые сэмплы : ДаИнтерфейс : Встроенный Win32-интерфейс для Win NT/2000
Выходной формат : Пользовательский кодировщикВыбранный битрейт : 128 kBit/sКачество : ВысокийДобавление ID3-тега : НетУтилита сжатия : C:\Program Files (x86)\Exact Audio Copy\Flac\flac.exeДополнительные параметры : -V -8 -T "Date=%year%" -T "Genre=%genre%" %source%
TOC извлечённого CD
Трек | Старт | Длительность | Начальный сектор | Конечный сектор --------------------------------------------------------------------- 1 | 0:00.00 | 4:00.40 | 0 | 18039 2 | 4:00.40 | 3:57.01 | 18040 | 35815 3 | 7:57.41 | 3:35.51 | 35816 | 51991 4 | 11:33.17 | 4:35.43 | 51992 | 72659 5 | 16:08.60 | 4:26.30 | 72660 | 92639 6 | 20:35.15 | 4:34.68 | 92640 | 113257 7 | 25:10.08 | 3:35.62 | 113258 | 129444 8 | 28:45.70 | 4:19.18 | 129445 | 148887 9 | 33:05.13 | 3:36.45 | 148888 | 165132 10 | 36:41.58 | 4:19.70 | 165133 | 184627 11 | 41:01.53 | 4:35.20 | 184628 | 205272 12 | 45:36.73 | 1:44.47 | 205273 | 213119 13 | 47:21.45 | 4:27.00 | 213120 | 233144 14 | 51:48.45 | 3:16.16 | 233145 | 247860
Характеристики диапазона извлечения и сообщения об ошибках
Выбранный диапазон
Имя файла C:\Temp\Andrea Bocelli\2009 - My Christmas (2015 Digital Remaster)\Andrea Bocelli - My Christmas.wav
Пиковый уровень 98.8 % Скорость извлечения 7.3 X Качество диапазона 100.0 % CRC теста CD10868B CRC копии CD10868B Копирование... OK
Ошибок не произошло
AccurateRip: сводка
Трек 1 отсутствует в базе данныхТрек 2 отсутствует в базе данныхТрек 3 отсутствует в базе данныхТрек 4 отсутствует в базе данныхТрек 5 отсутствует в базе данныхТрек 6 отсутствует в базе данныхТрек 7 отсутствует в базе данныхТрек 8 отсутствует в базе данныхТрек 9 отсутствует в базе данныхТрек 10 отсутствует в базе данныхТрек 11 отсутствует в базе данныхТрек 12 отсутствует в базе данныхТрек 13 отсутствует в базе данныхТрек 14 отсутствует в базе данных
Ни одного трека нет в базе AccurateRip
Конец отчёта
==== Контрольная сумма отчёта 977E2E2FFFF7666DD8A768A70C37BDCDECE08CA964FF3076863D37D4345071F5 ====

Содержание индексной карты (.CUE)

REM GENRE ClassicalREM DATE 2015REM DISCID C20CE80EREM COMMENT "ExactAudioCopy v1.1"PERFORMER "Andrea Bocelli"TITLE "My Christmas"FILE "Andrea Bocelli - My Christmas.flac" WAVE TRACK 01 AUDIO TITLE "White Christmas (Bianco Natale)" PERFORMER "Andrea Bocelli" INDEX 01 00:00:00 TRACK 02 AUDIO TITLE "Angels We Have Heard On High" PERFORMER "Andrea Bocelli" INDEX 00 03:57:67 INDEX 01 04:00:40 TRACK 03 AUDIO TITLE "Santa Claus Is Coming To Town" PERFORMER "Andrea Bocelli" INDEX 00 07:55:01 INDEX 01 07:57:41 TRACK 04 AUDIO TITLE "The Christmas Song (with Natalie Cole)" PERFORMER "Andrea Bocelli" INDEX 00 11:30:52 INDEX 01 11:33:17 TRACK 05 AUDIO TITLE "The Lord's Prayer (with Mormon Tabernacle Choir)" PERFORMER "Andrea Bocelli" INDEX 00 16:06:09 INDEX 01 16:08:60 TRACK 06 AUDIO TITLE "What Child Is This (with Mary J. Blige)" PERFORMER "Andrea Bocelli" INDEX 00 20:32:50 INDEX 01 20:35:15 TRACK 07 AUDIO TITLE "Adeste Fideles" PERFORMER "Andrea Bocelli" INDEX 00 25:07:25 INDEX 01 25:10:08 TRACK 08 AUDIO TITLE "O Tannenbaum" PERFORMER "Andrea Bocelli" INDEX 00 28:43:29 INDEX 01 28:45:70 TRACK 09 AUDIO TITLE "Jingle Bells (with The Muppets)" PERFORMER "Andrea Bocelli" INDEX 00 33:02:46 INDEX 01 33:05:13 TRACK 10 AUDIO TITLE "Blue Christmas (with Reba McEntire)" PERFORMER "Andrea Bocelli" INDEX 00 36:39:18 INDEX 01 36:41:58 TRACK 11 AUDIO TITLE "Cantique De Noel" PERFORMER "Andrea Bocelli" INDEX 00 40:59:13 INDEX 01 41:01:53 TRACK 12 AUDIO TITLE "Caro Gesu' Bambino" PERFORMER "Andrea Bocelli" INDEX 00 45:34:31 INDEX 01 45:36:73 TRACK 13 AUDIO TITLE "I Believe (with Katherine Jenkins)" PERFORMER "Andrea Bocelli" INDEX 00 47:19:03 INDEX 01 47:21:45 TRACK 14 AUDIO TITLE "God Bless Us Everyone" PERFORMER "Andrea Bocelli" INDEX 00 51:46:03 INDEX 01 51:48:45

Лог проверки качества

foobar2000 1.3.8 / Dynamic Range Meter 1.1.1log date: 2015-12-16 22:20:27
--------------------------------------------------------------------------------Analyzed: Andrea Bocelli / My Christmas--------------------------------------------------------------------------------
DR Peak RMS Duration Track--------------------------------------------------------------------------------DR8 -0.21 dB -11.33 dB 4:01 01-White Christmas (Bianco Natale)DR6 -0.10 dB -9.63 dB 3:57 02-Angels We Have Heard On HighDR8 -0.17 dB -9.87 dB 3:36 03-Santa Claus Is Coming To TownDR7 -0.16 dB -10.25 dB 4:36 04-The Christmas Song (with Natalie Cole)DR8 -0.19 dB -12.11 dB 4:26 05-The Lord's Prayer (with Mormon Tabernacle Choir)DR7 -0.14 dB -10.26 dB 4:35 06-What Child Is This (with Mary J. Blige)DR8 -0.19 dB -11.23 dB 3:36 07-Adeste FidelesDR9 -0.21 dB -12.17 dB 4:19 08-O TannenbaumDR7 -0.13 dB -9.62 dB 3:37 09-Jingle Bells (with The Muppets)DR8 -0.21 dB -10.90 dB 4:20 10-Blue Christmas (with Reba McEntire)DR8 -0.21 dB -11.24 dB 4:35 11-Cantique De NoelDR9 -0.21 dB -12.51 dB 1:45 12-Caro Gesu' BambinoDR7 -0.19 dB -11.24 dB 4:27 13-I Believe (with Katherine Jenkins)DR7 -0.10 dB -9.47 dB 3:16 14-God Bless Us Everyone--------------------------------------------------------------------------------
Number of tracks: 14Official DR value: DR8
Samplerate: 44100 HzChannels: 2Bits per sample: 16Bitrate: 790 kbpsCodec: FLAC================================================================================



Показать сообщения:    

Текущее время: 06-Дек 17:10

Часовой пояс: UTC + 3


Вы не можете начинать темы
Вы не можете отвечать на сообщения
Вы не можете редактировать свои сообщения
Вы не можете удалять свои сообщения
Вы не можете голосовать в опросах
Вы не можете прикреплять файлы к сообщениям
Вы не можете скачивать файлы