(Score) Хроники Нарнии: Покоритель Зари / The Chronicles Of Narnia: The Voyage Of The Dawn Treader (by David Arnold) - 2010, FLAC (tracks+.cue), lossless


Статистика раздачи [Обновить пиров]
Размер:  343 MB   |    Зарегистрирован:  11 месяцев 24 дня   |    Скачан:  0 раз

Полного источника не было: Никогда

Личеров:  2  [  0 KB/s  ]   Подробная статистика пиров
 
   
 
 
 

[Цитировать]

Хроники Нарнии: Покоритель Зари / The Chronicles Of Narnia: The Voyage Of The Dawn Treader-Жанр: Score
Композитор: David Arnold
Год выпуска диска: 2010
Производитель диска: Sony DADC, Austria
Издатель (лейбл): Sony Music
Номер по каталогу: 88697811422-Аудио кодек: FLAC (*.flac)
Тип рипа: tracks+.cue
Битрейт аудио: lossless
Продолжительность: 01:12:08
Источник: собственный рип
Наличие сканов в содержимом раздачи: да, 600dpi-Ссылки: Кинопоиск | IMDB | Wikipedia | SoundtrackCollector
MP3: (Score) Хроники Нарнии: Покоритель Зари / The Chronicles Of Narnia: The Voyage Of The Dawn Treader (by David Arnold) - 2010, MP3 (tracks), 320 kbps

Треклист

01. Opening Titles [0:01:07.09]
02. The Painting [0:02:27.68]
03. High King And Queen Of Narnia [0:01:33.29]
04. Reepi Cheep [0:00:58.01]
05. Land Ahoy [0:01:43.25]
06. The Lone Island [0:01:51.16]
07. Lord Berne [0:01:01.08]
08. The Green Mist [0:01:15.92]
09. Market Forces [0:01:53.28]
10. 1st Sword [0:01:17.61]
11. Eustace On Deck [0:01:10.78]
12. Duel [0:01:44.78]
13. The Magician's Island [0:04:30.30]
14. Lucy And The Invisible Mansion [0:05:24.26]
15. Coraikin And The Map [0:02:57.86]
16. Temptation of Lucy [0:01:16.12]
17. Aslan Appears [0:00:49.13]
18. The Golden Cavern [0:02:03.86]
19. Temptation of Edmund [0:01:57.93]
20. Dragon's Treasure [0:02:53.46]
21. Dragon Attack [0:02:29.94]
22. Under The Stars [0:02:56.00]
23. Blue Star [0:01:03.85]
24. Aslan's Table [0:02:32.22]
25. Liliandill And Dark Island [0:01:30.30]
26. The Calm Before The Storm [0:01:49.25]
27. Into Battle [0:11:02.85]
28. Sweet Water [0:02:05.66]
29. Ship To Shore [0:03:52.42]
30. Time To Go Home [0:02:46.52]

Лог создания рипа

Exact Audio Copy V0.99 prebeta 5 from 4. May 2009
EAC extraction logfile from 7. December 2010, 14:32
David Arnold / Chronicles of Narnia - Voyage Of The Dawn Treader
Used drive : TSSTcorpCD/DVDW SH-S182M Adapter: 0 ID: 0
Read mode : SecureUtilize accurate stream : YesDefeat audio cache : YesMake use of C2 pointers : No
Read offset correction : 6Overread into Lead-In and Lead-Out : NoFill up missing offset samples with silence : YesDelete leading and trailing silent blocks : NoNull samples used in CRC calculations : YesUsed interface : Installed external ASPI interfaceGap handling : Appended to previous track
Used output format : User Defined EncoderSelected bitrate : 768 kBit/sQuality : HighAdd ID3 tag : NoCommand line compressor : C:\Program Files\Exact Audio Copy\FLAC\FLAC.EXEAdditional command line options : -V -8 -T "artist=%a" -T "title=%t" -T "album=%g" -T "date=%y" -T "tracknumber=%n" -T "genre=%m" %s
TOC of the extracted CD
Track | Start | Length | Start sector | End sector --------------------------------------------------------- 1 | 0:00.00 | 1:07.07 | 0 | 5031 2 | 1:07.07 | 2:27.51 | 5032 | 16107 3 | 3:34.58 | 1:33.22 | 16108 | 23104 4 | 5:08.05 | 0:58.01 | 23105 | 27455 5 | 6:06.06 | 1:43.19 | 27456 | 35199 6 | 7:49.25 | 1:51.12 | 35200 | 43536 7 | 9:40.37 | 1:01.06 | 43537 | 48117 8 | 10:41.43 | 1:15.69 | 48118 | 53811 9 | 11:57.37 | 1:53.21 | 53812 | 62307 10 | 13:50.58 | 1:17.46 | 62308 | 68128 11 | 15:08.29 | 1:10.59 | 68129 | 73437 12 | 16:19.13 | 1:44.59 | 73438 | 81296 13 | 18:03.72 | 4:30.23 | 81297 | 101569 14 | 22:34.20 | 5:24.20 | 101570 | 125889 15 | 27:58.40 | 2:57.65 | 125890 | 139229 16 | 30:56.30 | 1:16.09 | 139230 | 144938 17 | 32:12.39 | 0:49.10 | 144939 | 148623 18 | 33:01.49 | 2:03.65 | 148624 | 157913 19 | 35:05.39 | 1:57.70 | 157914 | 166758 20 | 37:03.34 | 2:53.35 | 166759 | 179768 21 | 39:56.69 | 2:29.71 | 179769 | 191014 22 | 42:26.65 | 2:56.00 | 191015 | 204214 23 | 45:22.65 | 1:03.64 | 204215 | 209003 24 | 46:26.54 | 2:32.17 | 209004 | 220420 25 | 48:58.71 | 1:30.23 | 220421 | 227193 26 | 50:29.19 | 1:49.19 | 227194 | 235387 27 | 52:18.38 | 11:02.64 | 235388 | 285101 28 | 63:21.27 | 2:05.50 | 285102 | 294526 29 | 65:27.02 | 3:52.32 | 294527 | 311958 30 | 69:19.34 | 2:46.39 | 311959 | 324447
Track 1
Filename C:\Music\01 - David Arnold - Opening Titles.wav
Pre-gap length 0:00:02.00
Peak level 92.6 % Track quality 99.8 % Test CRC 57446020 Copy CRC 57446020 Track not present in AccurateRip database Copy OK
Track 2
Filename C:\Music\02 - David Arnold - The Painting.wav
Peak level 99.4 % Track quality 100.0 % Test CRC EDC25181 Copy CRC EDC25181 Track not present in AccurateRip database Copy OK
Track 3
Filename C:\Music\03 - David Arnold - High King And Queen Of Narnia.wav
Peak level 99.4 % Track quality 99.8 % Test CRC DC8A391A Copy CRC DC8A391A Track not present in AccurateRip database Copy OK
Track 4
Filename C:\Music\04 - David Arnold - Reepi Cheep.wav
Peak level 57.6 % Track quality 100.0 % Test CRC 65CB04CA Copy CRC 65CB04CA Track not present in AccurateRip database Copy OK
Track 5
Filename C:\Music\05 - David Arnold - Land Ahoy.wav
Peak level 83.7 % Track quality 99.8 % Test CRC 96F62943 Copy CRC 96F62943 Track not present in AccurateRip database Copy OK
Track 6
Filename C:\Music\06 - David Arnold - The Lone Island.wav
Peak level 99.5 % Track quality 100.0 % Test CRC FA84AFB8 Copy CRC FA84AFB8 Track not present in AccurateRip database Copy OK
Track 7
Filename C:\Music\07 - David Arnold - Lord Berne.wav
Peak level 15.0 % Track quality 99.8 % Test CRC 05237134 Copy CRC 05237134 Track not present in AccurateRip database Copy OK
Track 8
Filename C:\Music\08 - David Arnold - The Green Mist.wav
Peak level 99.5 % Track quality 100.0 % Test CRC 1A995877 Copy CRC 1A995877 Track not present in AccurateRip database Copy OK
Track 9
Filename C:\Music\09 - David Arnold - Market Forces.wav
Peak level 99.4 % Track quality 100.0 % Test CRC AAEAA30C Copy CRC AAEAA30C Track not present in AccurateRip database Copy OK
Track 10
Filename C:\Music\10 - David Arnold - 1st Sword.wav
Peak level 54.7 % Track quality 100.0 % Test CRC 7703FDAD Copy CRC 7703FDAD Track not present in AccurateRip database Copy OK
Track 11
Filename C:\Music\11 - David Arnold - Eustace On Deck.wav
Peak level 24.1 % Track quality 100.0 % Test CRC B35BB2FD Copy CRC B35BB2FD Track not present in AccurateRip database Copy OK
Track 12
Filename C:\Music\12 - David Arnold - Duel.wav
Peak level 99.2 % Track quality 100.0 % Test CRC 59034BE2 Copy CRC 59034BE2 Track not present in AccurateRip database Copy OK
Track 13
Filename C:\Music\13 - David Arnold - The Magician's Island.wav
Peak level 51.0 % Track quality 99.9 % Test CRC 1343AF7B Copy CRC 1343AF7B Track not present in AccurateRip database Copy OK
Track 14
Filename C:\Music\14 - David Arnold - Lucy And The Invisible Mansion.wav
Peak level 99.4 % Track quality 100.0 % Test CRC 8AC737C8 Copy CRC 8AC737C8 Track not present in AccurateRip database Copy OK
Track 15
Filename C:\Music\15 - David Arnold - Coraikin And The Map.wav
Peak level 99.4 % Track quality 100.0 % Test CRC C05E6250 Copy CRC C05E6250 Track not present in AccurateRip database Copy OK
Track 16
Filename C:\Music\16 - David Arnold - Temptation of Lucy.wav
Peak level 8.3 % Track quality 100.0 % Test CRC 0D58E948 Copy CRC 0D58E948 Track not present in AccurateRip database Copy OK
Track 17
Filename C:\Music\17 - David Arnold - Aslan Appears.wav
Peak level 17.0 % Track quality 99.7 % Test CRC 72018DCF Copy CRC 72018DCF Track not present in AccurateRip database Copy OK
Track 18
Filename C:\Music\18 - David Arnold - The Golden Cavern.wav
Peak level 75.5 % Track quality 99.9 % Test CRC 2CD5E85D Copy CRC 2CD5E85D Track not present in AccurateRip database Copy OK
Track 19
Filename C:\Music\19 - David Arnold - Temptation of Edmund.wav
Peak level 67.8 % Track quality 100.0 % Test CRC CCFCEEF3 Copy CRC CCFCEEF3 Track not present in AccurateRip database Copy OK
Track 20
Filename C:\Music\20 - David Arnold - Dragon's Treasure.wav
Peak level 53.3 % Track quality 100.0 % Test CRC 8D2C6E57 Copy CRC 8D2C6E57 Track not present in AccurateRip database Copy OK
Track 21
Filename C:\Music\21 - David Arnold - Dragon Attack.wav
Peak level 99.5 % Track quality 100.0 % Test CRC 46371B42 Copy CRC 46371B42 Track not present in AccurateRip database Copy OK
Track 22
Filename C:\Music\22 - David Arnold - Under The Stars.wav
Peak level 46.3 % Track quality 99.9 % Test CRC DEFD8033 Copy CRC DEFD8033 Track not present in AccurateRip database Copy OK
Track 23
Filename C:\Music\23 - David Arnold - Blue Star.wav
Peak level 67.1 % Track quality 100.0 % Test CRC 72D95606 Copy CRC 72D95606 Track not present in AccurateRip database Copy OK
Track 24
Filename C:\Music\24 - David Arnold - Aslan's Table.wav
Peak level 63.0 % Track quality 100.0 % Test CRC 3F6BB7E8 Copy CRC 3F6BB7E8 Track not present in AccurateRip database Copy OK
Track 25
Filename C:\Music\25 - David Arnold - Liliandill And Dark Island.wav
Peak level 99.4 % Track quality 99.8 % Test CRC 07BF3203 Copy CRC 07BF3203 Track not present in AccurateRip database Copy OK
Track 26
Filename C:\Music\26 - David Arnold - The Calm Before The Storm.wav
Peak level 73.9 % Track quality 99.9 % Test CRC 777FAC5C Copy CRC 777FAC5C Track not present in AccurateRip database Copy OK
Track 27
Filename C:\Music\27 - David Arnold - Into Battle.wav
Peak level 99.5 % Track quality 100.0 % Test CRC FF874E01 Copy CRC FF874E01 Track not present in AccurateRip database Copy OK
Track 28
Filename C:\Music\28 - David Arnold - Sweet Water.wav
Peak level 99.4 % Track quality 100.0 % Test CRC 2EA34373 Copy CRC 2EA34373 Track not present in AccurateRip database Copy OK
Track 29
Filename C:\Music\29 - David Arnold - Ship To Shore.wav
Peak level 99.4 % Track quality 99.9 % Test CRC 0204747D Copy CRC 0204747D Track not present in AccurateRip database Copy OK
Track 30
Filename C:\Music\30 - David Arnold - Time To Go Home.wav
Peak level 99.4 % Track quality 100.0 % Test CRC DDDC0F15 Copy CRC DDDC0F15 Track not present in AccurateRip database Copy OK
None of the tracks are present in the AccurateRip database
No errors occurred
End of status report

Содержание индексной карты (.CUE)

REM GENRE ScoreREM DATE 2010REM DISCID AF10E51EREM COMMENT "ExactAudioCopy v0.99pb5"PERFORMER "David Arnold"TITLE "Chronicles of Narnia - Voyage Of The Dawn Treader"FILE "01 - David Arnold - Opening Titles.wav" WAVE TRACK 01 AUDIO TITLE "Opening Titles" PERFORMER "David Arnold" FLAGS DCP INDEX 01 00:00:00FILE "02 - David Arnold - The Painting.wav" WAVE TRACK 02 AUDIO TITLE "The Painting" PERFORMER "David Arnold" FLAGS DCP INDEX 01 00:00:00FILE "03 - David Arnold - High King And Queen Of Narnia.wav" WAVE TRACK 03 AUDIO TITLE "High King And Queen Of Narnia" PERFORMER "David Arnold" FLAGS DCP INDEX 01 00:00:00FILE "04 - David Arnold - Reepi Cheep.wav" WAVE TRACK 04 AUDIO TITLE "Reepi Cheep" PERFORMER "David Arnold" FLAGS DCP INDEX 01 00:00:00FILE "05 - David Arnold - Land Ahoy.wav" WAVE TRACK 05 AUDIO TITLE "Land Ahoy" PERFORMER "David Arnold" FLAGS DCP INDEX 01 00:00:00FILE "06 - David Arnold - The Lone Island.wav" WAVE TRACK 06 AUDIO TITLE "The Lone Island" PERFORMER "David Arnold" FLAGS DCP INDEX 01 00:00:00FILE "07 - David Arnold - Lord Berne.wav" WAVE TRACK 07 AUDIO TITLE "Lord Berne" PERFORMER "David Arnold" FLAGS DCP INDEX 01 00:00:00FILE "08 - David Arnold - The Green Mist.wav" WAVE TRACK 08 AUDIO TITLE "The Green Mist" PERFORMER "David Arnold" FLAGS DCP INDEX 01 00:00:00FILE "09 - David Arnold - Market Forces.wav" WAVE TRACK 09 AUDIO TITLE "Market Forces" PERFORMER "David Arnold" FLAGS DCP INDEX 01 00:00:00FILE "10 - David Arnold - 1st Sword.wav" WAVE TRACK 10 AUDIO TITLE "1st Sword " PERFORMER "David Arnold" FLAGS DCP INDEX 01 00:00:00FILE "11 - David Arnold - Eustace On Deck.wav" WAVE TRACK 11 AUDIO TITLE "Eustace On Deck" PERFORMER "David Arnold" FLAGS DCP INDEX 01 00:00:00FILE "12 - David Arnold - Duel.wav" WAVE TRACK 12 AUDIO TITLE "Duel" PERFORMER "David Arnold" FLAGS DCP INDEX 01 00:00:00FILE "13 - David Arnold - The Magician's Island.wav" WAVE TRACK 13 AUDIO TITLE "The Magician's Island" PERFORMER "David Arnold" FLAGS DCP INDEX 01 00:00:00FILE "14 - David Arnold - Lucy And The Invisible Mansion.wav" WAVE TRACK 14 AUDIO TITLE "Lucy And The Invisible Mansion" PERFORMER "David Arnold" FLAGS DCP INDEX 01 00:00:00FILE "15 - David Arnold - Coraikin And The Map.wav" WAVE TRACK 15 AUDIO TITLE "Coraikin And The Map" PERFORMER "David Arnold" FLAGS DCP INDEX 01 00:00:00FILE "16 - David Arnold - Temptation of Lucy.wav" WAVE TRACK 16 AUDIO TITLE "Temptation of Lucy" PERFORMER "David Arnold" FLAGS DCP INDEX 01 00:00:00FILE "17 - David Arnold - Aslan Appears.wav" WAVE TRACK 17 AUDIO TITLE "Aslan Appears " PERFORMER "David Arnold" FLAGS DCP INDEX 01 00:00:00FILE "18 - David Arnold - The Golden Cavern.wav" WAVE TRACK 18 AUDIO TITLE "The Golden Cavern" PERFORMER "David Arnold" FLAGS DCP INDEX 01 00:00:00FILE "19 - David Arnold - Temptation of Edmund.wav" WAVE TRACK 19 AUDIO TITLE "Temptation of Edmund" PERFORMER "David Arnold" FLAGS DCP INDEX 01 00:00:00FILE "20 - David Arnold - Dragon's Treasure.wav" WAVE TRACK 20 AUDIO TITLE "Dragon's Treasure" PERFORMER "David Arnold" FLAGS DCP INDEX 01 00:00:00FILE "21 - David Arnold - Dragon Attack.wav" WAVE TRACK 21 AUDIO TITLE "Dragon Attack" PERFORMER "David Arnold" FLAGS DCP INDEX 01 00:00:00FILE "22 - David Arnold - Under The Stars.wav" WAVE TRACK 22 AUDIO TITLE "Under The Stars" PERFORMER "David Arnold" FLAGS DCP INDEX 01 00:00:00FILE "23 - David Arnold - Blue Star.wav" WAVE TRACK 23 AUDIO TITLE "Blue Star" PERFORMER "David Arnold" FLAGS DCP INDEX 01 00:00:00FILE "24 - David Arnold - Aslan's Table.wav" WAVE TRACK 24 AUDIO TITLE "Aslan's Table" PERFORMER "David Arnold" FLAGS DCP INDEX 01 00:00:00FILE "25 - David Arnold - Liliandill And Dark Island.wav" WAVE TRACK 25 AUDIO TITLE "Liliandill And Dark Island" PERFORMER "David Arnold" FLAGS DCP INDEX 01 00:00:00FILE "26 - David Arnold - The Calm Before The Storm.wav" WAVE TRACK 26 AUDIO TITLE "The Calm Before The Storm" PERFORMER "David Arnold" FLAGS DCP INDEX 01 00:00:00FILE "27 - David Arnold - Into Battle.wav" WAVE TRACK 27 AUDIO TITLE "Into Battle " PERFORMER "David Arnold" FLAGS DCP INDEX 01 00:00:00FILE "28 - David Arnold - Sweet Water.wav" WAVE TRACK 28 AUDIO TITLE "Sweet Water" PERFORMER "David Arnold" FLAGS DCP INDEX 01 00:00:00FILE "29 - David Arnold - Ship To Shore.wav" WAVE TRACK 29 AUDIO TITLE "Ship To Shore" PERFORMER "David Arnold" FLAGS DCP INDEX 01 00:00:00FILE "30 - David Arnold - Time To Go Home.wav" WAVE TRACK 30 AUDIO TITLE "Time To Go Home" PERFORMER "David Arnold" FLAGS DCP INDEX 01 00:00:00

Лог-файл CUETools

[CUETools log; Date: 16.12.2015 22:41:19; Version: 2.1.5][CTDB TOCID: AO_tES34lQPyfoPfhTiNOBvA0ok-] found.Track | CTDB Status 1 | (17/17) Accurately ripped 2 | (17/17) Accurately ripped 3 | (17/17) Accurately ripped 4 | (17/17) Accurately ripped 5 | (17/17) Accurately ripped 6 | (17/17) Accurately ripped 7 | (17/17) Accurately ripped 8 | (17/17) Accurately ripped 9 | (17/17) Accurately ripped 10 | (17/17) Accurately ripped 11 | (17/17) Accurately ripped 12 | (17/17) Accurately ripped 13 | (17/17) Accurately ripped 14 | (17/17) Accurately ripped 15 | (17/17) Accurately ripped 16 | (17/17) Accurately ripped 17 | (17/17) Accurately ripped 18 | (17/17) Accurately ripped 19 | (17/17) Accurately ripped 20 | (17/17) Accurately ripped 21 | (17/17) Accurately ripped 22 | (17/17) Accurately ripped 23 | (17/17) Accurately ripped 24 | (17/17) Accurately ripped 25 | (17/17) Accurately ripped 26 | (17/17) Accurately ripped 27 | (17/17) Accurately ripped 28 | (17/17) Accurately ripped 29 | (17/17) Accurately ripped 30 | (17/17) Accurately ripped[AccurateRip ID: 00402bc4-05912fc5-af10e51e] found.Track [ CRC | V2 ] Status 01 [4eaf9158|84ac16d6] (13+30/43) Accurately ripped 02 [8d54d48b|0df4d9a2] (13+30/43) Accurately ripped 03 [87b61a27|c1df3130] (13+30/43) Accurately ripped 04 [8b1a350c|4b6620a9] (13+30/43) Accurately ripped 05 [8a374470|4591f124] (13+31/44) Accurately ripped 06 [c4921aad|7264b29a] (13+31/44) Accurately ripped 07 [ba9300a7|337603f3] (13+31/44) Accurately ripped 08 [b632f7bb|0101842e] (12+31/43) Accurately ripped 09 [f5b01578|ca1204ba] (13+31/44) Accurately ripped 10 [b739ef81|d927a770] (12+31/43) Accurately ripped 11 [94895bbf|d952c2d1] (12+31/43) Accurately ripped 12 [d1c61027|8e38303d] (13+31/44) Accurately ripped 13 [acdd736b|1792f11f] (13+31/44) Accurately ripped 14 [8e4ea3a8|4b5d2a2f] (13+31/44) Accurately ripped 15 [8c942f54|ff657283] (13+31/44) Accurately ripped 16 [57dcef01|767fe477] (13+31/44) Accurately ripped 17 [6655407b|c64aa663] (13+31/44) Accurately ripped 18 [ecbf3ac6|10c82266] (13+31/44) Accurately ripped 19 [ddf342ce|7e469a34] (13+31/44) Accurately ripped 20 [e4bd7ab8|478e43e4] (13+31/44) Accurately ripped 21 [2b935f46|8f2688bd] (13+31/44) Accurately ripped 22 [3a699fad|7f6cc962] (13+31/44) Accurately ripped 23 [85432094|425367de] (13+31/44) Accurately ripped 24 [2d809845|ae1066d9] (13+31/44) Accurately ripped 25 [310fd5df|a33b4ebb] (12+31/43) Accurately ripped 26 [3a04d0c5|af889fd8] (13+31/44) Accurately ripped 27 [0e6105bd|c216058d] (13+31/44) Accurately ripped 28 [4d7f29dc|290d18ff] (12+31/43) Accurately ripped 29 [bbdb3d42|78212000] (12+31/43) Accurately ripped 30 [13453751|63e61f11] (12+31/43) Accurately ripped
Track Peak [ CRC32 ] [W/O NULL] [ LOG ] -- 99,5 [8F8477D1] [C40915F0] 01 92,6 [57446020] [E3600E89] CRC32 02 99,4 [EDC25181] [D70CCADB] CRC32 03 99,4 [DC8A391A] [CE432E2D] CRC32 04 57,6 [65CB04CA] [1FA18FCA] CRC32 05 83,7 [96F62943] [E3493BBF] CRC32 06 99,5 [FA84AFB8] [AC333A5E] CRC32 07 15,0 [05237134] [B4A857D4] CRC32 08 99,5 [1A995877] [66C8AA7B] CRC32 09 99,4 [AAEAA30C] [E786DD4B] CRC32 10 54,7 [7703FDAD] [C78DE9C6] CRC32 11 24,1 [B35BB2FD] [F48D2262] CRC32 12 99,2 [59034BE2] [2A27BBCC] CRC32 13 51,0 [1343AF7B] [A97510EB] CRC32 14 99,4 [8AC737C8] [73BC31BA] CRC32 15 99,4 [C05E6250] [3D6A3B4F] CRC32 16 8,3 [0D58E948] [74EAB1BE] CRC32 17 17,0 [72018DCF] [512DB35F] CRC32 18 75,5 [2CD5E85D] [79E5859A] CRC32 19 67,8 [CCFCEEF3] [B22B60F6] CRC32 20 53,3 [8D2C6E57] [A7BB2A1B] CRC32 21 99,5 [46371B42] [4EB346A0] CRC32 22 46,3 [DEFD8033] [C61FFFC2] CRC32 23 67,1 [72D95606] [36E6AD91] CRC32 24 63,0 [3F6BB7E8] [871EA392] CRC32 25 99,4 [07BF3203] [D00EB87A] CRC32 26 73,9 [777FAC5C] [7B37E9F2] CRC32 27 99,5 [FF874E01] [081D62F3] CRC32 28 99,4 [2EA34373] [ADCC1E30] CRC32 29 99,4 [0204747D] [D64C4988] CRC32 30 99,4 [DDDC0F15] [06B6C117] CRC32
[teatrix.ru].t12249.torrent 
Торрент: Зарегистрирован [ 2015-12-17 01:15 ] · B612390C9EA706851BF8DE13602A3031DAB6EBE6

Скачать .torrent

Скачать

17 KB

Статус: проверено
Скачан: 0 раз
Размер: 343 MB
terms.php



Быстрый ответ

Имя:

      
Для отправки сообщений необходимо включить JavaScript
Показать сообщения:    

Текущее время: 10-Дек 23:27

Часовой пояс: UTC + 3


Вы можете начинать темы
Вы можете отвечать на сообщения
Вы не можете редактировать свои сообщения
Вы не можете удалять свои сообщения
Вы не можете голосовать в опросах
Вы не можете прикреплять файлы к сообщениям
Вы можете скачивать файлы