(Soundtrack) Бурлеск / Burlesque (by Cher & Christina Aguilera) - 2010, FLAC (tracks+.cue), lossless


Статистика раздачи [Обновить пиров]
Размер:  249 MB   |    Зарегистрирован:  11 месяцев 20 дней   |    Скачан:  4 раза

Полного источника не было: 7 дней

Личеров:  2  [  0 KB/s  ]   Подробная статистика пиров
 
   
 
 
 

[Цитировать]

Бурлеск / Burlesque-Жанр: Soundtrack
Год выпуска диска: 2010
Производитель диска: Sonopress, Germany
Издатель (лейбл): RCA / Sony Music
Номер по каталогу: 88697 80457 2-Аудио кодек: FLAC (*.flac)
Тип рипа: tracks+.cue
Битрейт аудио: lossless
Продолжительность: 00:32:12
Источник: собственный рип
Наличие сканов в содержимом раздачи: да, 600dpi-Ссылки: Кинопоиск | IMDB | Wikipedia | SoundtrackCollector

Треклист

01. Christina Aguilera / Something's Got A Hold On Me [0:03:04.88]
02. Cher / Welcome to Burlesque [0:02:46.12]
03. Christina Aguilera / Tough Lover [0:02:00.82]
04. Christina Aguilera / But I Am A Good Girl [0:02:30.85]
05. Christina Aguilera / Guy What Takes His Time [0:02:44.14]
06. Christina Aguilera / Express [0:04:21.80]
07. Cher / You Haven’t Seen the Last of Me [0:03:31.12]
08. Christina Aguilera / Bound to You [0:04:25.09]
09. Christina Aguilera / Show Me How You Burlesque [0:03:00.86]
10. Christina Aguilera / The Beautiful People (from Burlesque) [0:03:32.29]

Лог создания рипа

Exact Audio Copy V0.99 prebeta 5 from 4. May 2009
EAC extraction logfile from 20. November 2010, 16:50
Various / Burlesque - Soundtrack
Used drive : TSSTcorpCD/DVDW SH-S182M Adapter: 0 ID: 0
Read mode : SecureUtilize accurate stream : YesDefeat audio cache : YesMake use of C2 pointers : No
Read offset correction : 6Overread into Lead-In and Lead-Out : NoFill up missing offset samples with silence : YesDelete leading and trailing silent blocks : NoNull samples used in CRC calculations : YesUsed interface : Installed external ASPI interfaceGap handling : Appended to previous track
Used output format : User Defined EncoderSelected bitrate : 768 kBit/sQuality : HighAdd ID3 tag : NoCommand line compressor : C:\Program Files\Exact Audio Copy\FLAC\FLAC.EXEAdditional command line options : -8 -V %s
TOC of the extracted CD
Track | Start | Length | Start sector | End sector --------------------------------------------------------- 1 | 0:00.00 | 3:04.66 | 0 | 13865 2 | 3:04.66 | 2:46.09 | 13866 | 26324 3 | 5:51.00 | 2:00.62 | 26325 | 35386 4 | 7:51.62 | 2:30.64 | 35387 | 46700 5 | 10:22.51 | 2:44.11 | 46701 | 59011 6 | 13:06.62 | 4:21.60 | 59012 | 78646 7 | 17:28.47 | 3:31.09 | 78647 | 94480 8 | 20:59.56 | 4:25.07 | 94481 | 114362 9 | 25:24.63 | 3:00.65 | 114363 | 127927 10 | 28:25.53 | 3:32.22 | 127928 | 143849
Track 1
Filename C:\Music\01. Christina Aguilera - Something's Got A Hold On Me.wav
Pre-gap length 0:00:02.00
Peak level 98.8 % Track quality 100.0 % Test CRC 0AD12426 Copy CRC 0AD12426 Track not present in AccurateRip database Copy OK
Track 2
Filename C:\Music\02. Cher - Welcome to Burlesque.wav
Pre-gap length 0:00:00.10
Peak level 98.8 % Track quality 100.0 % Test CRC B5D50CF4 Copy CRC B5D50CF4 Track not present in AccurateRip database Copy OK
Track 3
Filename C:\Music\03. Christina Aguilera - Tough Lover.wav
Pre-gap length 0:00:00.14
Peak level 98.8 % Track quality 100.0 % Test CRC FBC73E26 Copy CRC FBC73E26 Track not present in AccurateRip database Copy OK
Track 4
Filename C:\Music\04. Christina Aguilera - But I Am A Good Girl.wav
Pre-gap length 0:00:00.37
Peak level 100.0 % Track quality 100.0 % Test CRC 1C018029 Copy CRC 1C018029 Track not present in AccurateRip database Copy OK
Track 5
Filename C:\Music\05. Christina Aguilera - Guy What Takes His Time.wav
Pre-gap length 0:00:01.16
Peak level 99.8 % Track quality 100.0 % Test CRC 54985A58 Copy CRC 54985A58 Track not present in AccurateRip database Copy OK
Track 6
Filename C:\Music\06. Christina Aguilera - Express.wav
Pre-gap length 0:00:01.01
Peak level 98.8 % Track quality 100.0 % Test CRC A1D70429 Copy CRC A1D70429 Track not present in AccurateRip database Copy OK
Track 7
Filename C:\Music\07. Cher - You Haven't Seen the Last of Me.wav
Pre-gap length 0:00:01.76
Peak level 98.8 % Track quality 100.0 % Test CRC 5FC37329 Copy CRC 5FC37329 Track not present in AccurateRip database Copy OK
Track 8
Filename C:\Music\08. Christina Aguilera - Bound to You.wav
Pre-gap length 0:00:00.57
Peak level 98.8 % Track quality 100.0 % Test CRC A1FA434C Copy CRC A1FA434C Track not present in AccurateRip database Copy OK
Track 9
Filename C:\Music\09. Christina Aguilera - Show Me How You Burlesque.wav
Pre-gap length 0:00:01.26
Peak level 98.8 % Track quality 100.0 % Test CRC 235A6B6C Copy CRC 235A6B6C Track not present in AccurateRip database Copy OK
Track 10
Filename C:\Music\10. Christina Aguilera - The Beautiful People (from Burlesque).wav
Pre-gap length 0:00:01.49
Peak level 88.2 % Track quality 100.0 % Test CRC B2BE91BD Copy CRC B2BE91BD Track not present in AccurateRip database Copy OK
None of the tracks are present in the AccurateRip database
No errors occurred
End of status report

Содержание индексной карты (.CUE)

REM GENRE SoundtrackREM DATE 2010REM DISCID 7A077E0AREM COMMENT "ExactAudioCopy v0.99pb5"PERFORMER "Various"TITLE "Burlesque - Soundtrack"FILE "01. Christina Aguilera - Something's Got A Hold On Me.wav" WAVE TRACK 01 AUDIO TITLE "Something's Got A Hold On Me" PERFORMER "Christina Aguilera" INDEX 01 00:00:00 TRACK 02 AUDIO TITLE "Welcome to Burlesque" PERFORMER "Cher" INDEX 00 03:04:58FILE "02. Cher - Welcome to Burlesque.wav" WAVE INDEX 01 00:00:00 TRACK 03 AUDIO TITLE "Tough Lover" PERFORMER "Christina Aguilera" INDEX 00 02:45:73FILE "03. Christina Aguilera - Tough Lover.wav" WAVE INDEX 01 00:00:00 TRACK 04 AUDIO TITLE "But I Am A Good Girl" PERFORMER "Christina Aguilera" INDEX 00 02:00:34FILE "04. Christina Aguilera - But I Am A Good Girl.wav" WAVE INDEX 01 00:00:00 TRACK 05 AUDIO TITLE "Guy What Takes His Time" PERFORMER "Christina Aguilera" INDEX 00 02:29:52FILE "05. Christina Aguilera - Guy What Takes His Time.wav" WAVE INDEX 01 00:00:00 TRACK 06 AUDIO TITLE "Express" PERFORMER "Christina Aguilera" INDEX 00 02:43:10FILE "06. Christina Aguilera - Express.wav" WAVE INDEX 01 00:00:00 TRACK 07 AUDIO TITLE "You Haven't Seen the Last of Me" PERFORMER "Cher" INDEX 00 04:20:03FILE "07. Cher - You Haven't Seen the Last of Me.wav" WAVE INDEX 01 00:00:00 TRACK 08 AUDIO TITLE "Bound to You" PERFORMER "Christina Aguilera" INDEX 00 03:30:41FILE "08. Christina Aguilera - Bound to You.wav" WAVE INDEX 01 00:00:00 TRACK 09 AUDIO TITLE "Show Me How You Burlesque" PERFORMER "Christina Aguilera" INDEX 00 04:23:62FILE "09. Christina Aguilera - Show Me How You Burlesque.wav" WAVE INDEX 01 00:00:00 TRACK 10 AUDIO TITLE "The Beautiful People (from Burlesque)" PERFORMER "Christina Aguilera" INDEX 00 02:59:28FILE "10. Christina Aguilera - The Beautiful People (from Burlesque).wav" WAVE INDEX 01 00:00:00

Лог-файл CUETools

[CUETools log; Date: 16.12.2015 21:50:31; Version: 2.1.5][CTDB TOCID: LCD_AOtnDD3veAIYTB4XNfQQWyE-] found.Track | CTDB Status 1 | (133/134) Accurately ripped 2 | (133/134) Accurately ripped 3 | (133/134) Accurately ripped 4 | (133/134) Accurately ripped 5 | (133/134) Accurately ripped 6 | (133/134) Accurately ripped 7 | (133/134) Accurately ripped 8 | (133/134) Accurately ripped 9 | (132/134) Accurately ripped 10 | (132/134) Accurately ripped[AccurateRip ID: 000b4cd0-005c0ed3-7a077e0a] found.Track [ CRC | V2 ] Status 01 [b5bfa505|07dc3f80] (017+040/136) Accurately ripped 02 [5457c8b7|d7c7a8e9] (017+040/137) Accurately ripped 03 [1762fa4e|7b9f0d62] (017+040/137) Accurately ripped 04 [4dcf2b6e|b5df170c] (017+040/138) Accurately ripped 05 [705257b2|8cd22d24] (017+040/138) Accurately ripped 06 [8ee1199e|32f65e09] (017+040/137) Accurately ripped 07 [c6a088b6|e6296c77] (017+040/138) Accurately ripped 08 [97cd3552|5be2bacd] (017+040/138) Accurately ripped 09 [8a7e2249|7e1bae0a] (017+040/138) Accurately ripped 10 [0ffb52bc|e807c62b] (017+040/138) Accurately rippedOffsetted by -634: 01 [cbbcd717] (004/136) Accurately ripped 02 [57aceb5b] (004/137) Accurately ripped 03 [2bab18ba] (004/137) Accurately ripped 04 [9eb4f1de] (004/138) Accurately ripped 05 [3f3d5876] (004/138) Accurately ripped 06 [389f30bc] (004/137) Accurately ripped 07 [7db49e06] (004/138) Accurately ripped 08 [e294db1e] (004/138) Accurately ripped 09 [00bbd481] (004/138) Accurately ripped 10 [ab639a8e] (004/138) Accurately rippedOffsetted by 12: 01 [0aef5829] (014/136) Accurately ripped 02 [51db6bff] (014/137) Accurately ripped 03 [53921126] (014/137) Accurately ripped 04 [0398c04e] (014/138) Accurately ripped 05 [e994273a] (014/138) Accurately ripped 06 [ad95a0da] (014/137) Accurately ripped 07 [99f9cb56] (014/138) Accurately ripped 08 [2c982aea] (014/138) Accurately ripped 09 [a4850ab9] (014/138) Accurately ripped 10 [72cb5160] (014/138) Accurately rippedOffsetted by 48: 01 [0a7e7195] (000/136) No match (V2 was not tested) 02 [4a6655d7] (000/137) No match (V2 was not tested) 03 [081f55ae] (000/137) No match (V2 was not tested) 04 [24f57eee] (000/138) No match (V2 was not tested) 05 [555995d2] (000/138) No match (V2 was not tested) 06 [09b3368e] (000/137) No match (V2 was not tested) 07 [14059336] (000/138) No match (V2 was not tested) 08 [eaf90bb2] (000/138) No match (V2 was not tested) 09 [f299c409] (000/138) No match (V2 was not tested) 10 [9b3b4d4c] (000/138) No match (V2 was not tested)
Track Peak [ CRC32 ] [W/O NULL] [ LOG ] -- 100,0 [8B1CD142] [4EAECBF0] 01 98,8 [0AD12426] [AE58986D] CRC32 02 98,8 [B5D50CF4] [E8F22198] CRC32 03 98,8 [FBC73E26] [CF3394D7] CRC32 04 100,0 [1C018029] [19EE313A] CRC32 05 99,8 [54985A58] [AA5BF7F0] CRC32 06 98,8 [A1D70429] [005DE2C5] CRC32 07 98,8 [5FC37329] [51D20D9C] CRC32 08 98,8 [A1FA434C] [EAF06286] CRC32 09 98,8 [235A6B6C] [24BB6732] CRC32 10 88,2 [B2BE91BD] [114C177C] CRC32
[teatrix.ru].t12251.torrent 
Торрент: Зарегистрирован [ 2015-12-17 01:15 ] · EF9ED6975FFBD43910DEB4FDCDB0461E33F66872

Скачать .torrent

Скачать

21 KB

Статус: проверено
Скачан: 4 раз
Размер: 249 MB
terms.php



Быстрый ответ

Имя:

      
Для отправки сообщений необходимо включить JavaScript
Показать сообщения:    

Текущее время: 06-Дек 13:12

Часовой пояс: UTC + 3


Вы можете начинать темы
Вы можете отвечать на сообщения
Вы не можете редактировать свои сообщения
Вы не можете удалять свои сообщения
Вы не можете голосовать в опросах
Вы не можете прикреплять файлы к сообщениям
Вы можете скачивать файлы