(Score) Поезд-беглец / Runaway Train (by Trevor Jones) - 1985, FLAC (tracks+.cue), lossless


Статистика раздачи [Обновить пиров]
Размер:  212 MB   |    Зарегистрирован:  11 месяцев 21 день   |    Скачан:  1 раз

Полного источника не было: 3 дня

Личеров:  2  [  0 KB/s  ]   Подробная статистика пиров
 
   
 
 
 

[Цитировать]

Поезд-беглец / Runaway Train-Жанр: Score
Композитор: Trevor Jones
Год выпуска диска: 1985
Страна-производитель диска: Switzerland
Издатель (лейбл): Milan
Номер по каталогу: CD CH 267-Аудио кодек: FLAC (*.flac)
Тип рипа: tracks+.cue
Битрейт аудио: lossless
Продолжительность: 00:41:47
Источник: собственный рип
Наличие сканов в содержимом раздачи: да, 600dpi-Ссылки: Кинопоиск | IMDB | Wikipedia | SoundtrackCollector

Треклист

01. Jailbreak! [0:02:01.47]
02. Moving on [0:03:43.53]
03. Destination unknown [0:02:21.07]
04. Clear the tracks! [0:04:06.13]
05. Reflections [0:03:00.37]
06. Runaway train [0:04:47.65]
07. Prison memories the yellow rose of Texas [0:03:04.35]
08. Collision course [0:02:19.45]
09. Past, present, future? [0:02:24.30]
10. Red for danger [0:03:09.60]
11. Gloria [0:06:49.05]
12. End of the line [0:03:58.20]

Лог создания рипа

Exact Audio Copy V0.99 prebeta 5 from 4. May 2009
EAC extraction logfile from 3. January 2011, 14:24
Trevor Jones / Runaway Train (Milan CD CH 267)
Used drive : HL-DT-STDVDRAM_GSA-T20N Adapter: 0 ID: 0
Read mode : SecureUtilize accurate stream : YesDefeat audio cache : YesMake use of C2 pointers : No
Read offset correction : 667Overread into Lead-In and Lead-Out : NoFill up missing offset samples with silence : YesDelete leading and trailing silent blocks : NoNull samples used in CRC calculations : YesUsed interface : Native Win32 interface for Win NT & 2000Gap handling : Appended to previous track
Used output format : User Defined EncoderSelected bitrate : 1024 kBit/sQuality : HighAdd ID3 tag : NoCommand line compressor : C:\Program Files\Exact Audio Copy\Flac\flac.exeAdditional command line options : -V -8 -T "artist=%a" -T "title=%t" -T "album=%g" -T "date=%y" -T "tracknumber=%n" -T "genre=%m" %s
TOC of the extracted CD
Track | Start | Length | Start sector | End sector --------------------------------------------------------- 1 | 0:00.33 | 2:01.47 | 33 | 9154 2 | 2:02.05 | 3:43.53 | 9155 | 25932 3 | 5:45.58 | 2:21.07 | 25933 | 36514 4 | 8:06.65 | 4:06.13 | 36515 | 54977 5 | 12:13.03 | 3:00.37 | 54978 | 68514 6 | 15:13.40 | 4:47.65 | 68515 | 90104 7 | 20:01.30 | 3:04.35 | 90105 | 103939 8 | 23:05.65 | 2:19.45 | 103940 | 114409 9 | 25:25.35 | 2:24.30 | 114410 | 125239 10 | 27:49.65 | 3:09.60 | 125240 | 139474 11 | 30:59.50 | 6:49.05 | 139475 | 170154 12 | 37:48.55 | 3:58.20 | 170155 | 188024
Track 1
Filename C:\Music\01 - Jailbreak!.wav
Pre-gap length 0:00:02.33
Peak level 52.6 % Track quality 100.0 % Test CRC 7FFC7217 Copy CRC 7FFC7217 Accurately ripped (confidence 2) [14BFC4F0] Copy OK
Track 2
Filename C:\Music\02 - Moving on.wav
Peak level 58.7 % Track quality 100.0 % Test CRC 99367DBF Copy CRC 99367DBF Accurately ripped (confidence 2) [A0172328] Copy OK
Track 3
Filename C:\Music\03 - Destination unknown.wav
Peak level 34.0 % Track quality 99.9 % Test CRC 67B2E750 Copy CRC 67B2E750 Accurately ripped (confidence 2) [55CEDBEB] Copy OK
Track 4
Filename C:\Music\04 - Clear the tracks!.wav
Pre-gap length 0:00:00.01
Peak level 49.6 % Track quality 100.0 % Test CRC 734DAAE7 Copy CRC 734DAAE7 Accurately ripped (confidence 2) [952E81B6] Copy OK
Track 5
Filename C:\Music\05 - Reflections.wav
Pre-gap length 0:00:03.58
Peak level 36.0 % Track quality 100.0 % Test CRC 6A19E3BE Copy CRC 6A19E3BE Accurately ripped (confidence 2) [4DDB19A3] Copy OK
Track 6
Filename C:\Music\06 - Runaway train.wav
Pre-gap length 0:00:00.01
Peak level 64.9 % Track quality 99.9 % Test CRC E94294D3 Copy CRC E94294D3 Accurately ripped (confidence 2) [5340D935] Copy OK
Track 7
Filename C:\Music\07 - Prison memories the yellow rose of Texas.wav
Pre-gap length 0:00:02.07
Peak level 47.0 % Track quality 100.0 % Test CRC C8E23E1F Copy CRC C8E23E1F Accurately ripped (confidence 2) [F6BD8320] Copy OK
Track 8
Filename C:\Music\08 - Collision course.wav
Peak level 33.2 % Track quality 100.0 % Test CRC A93C3335 Copy CRC A93C3335 Accurately ripped (confidence 2) [8141F870] Copy OK
Track 9
Filename C:\Music\09 - Past, present, future .wav
Peak level 39.3 % Track quality 100.0 % Test CRC 17A05AB8 Copy CRC 17A05AB8 Accurately ripped (confidence 2) [B60C7712] Copy OK
Track 10
Filename C:\Music\10 - Red for danger.wav
Peak level 43.3 % Track quality 100.0 % Test CRC 1C002991 Copy CRC 1C002991 Accurately ripped (confidence 2) [C042B893] Copy OK
Track 11
Filename C:\Music\11 - Gloria.wav
Pre-gap length 0:00:01.27
Peak level 42.1 % Track quality 100.0 % Test CRC 52E124A9 Copy CRC 52E124A9 Accurately ripped (confidence 2) [EED7053A] Copy OK
Track 12
Filename C:\Music\12 - End of the line.wav
Peak level 43.8 % Track quality 100.0 % Test CRC 14031935 Copy CRC 14031935 Accurately ripped (confidence 2) [77D4690B] Copy OK
All tracks accurately ripped
No errors occurred
End of status report

Содержание индексной карты (.CUE)

REM GENRE SoundtrackREM DATE 1985REM DISCID 9B09CB0CREM COMMENT "ExactAudioCopy v0.99pb5"PERFORMER "Trevor Jones"TITLE "Runaway Train (Milan CD CH 267)"FILE "01 - Jailbreak!.wav" WAVE TRACK 01 AUDIO TITLE "Jailbreak!" PERFORMER "Trevor Jones" PREGAP 00:00:33 INDEX 01 00:00:00FILE "02 - Moving on.wav" WAVE TRACK 02 AUDIO TITLE "Moving on" PERFORMER "Trevor Jones" INDEX 01 00:00:00FILE "03 - Destination unknown.wav" WAVE TRACK 03 AUDIO TITLE "Destination unknown" PERFORMER "Trevor Jones" INDEX 01 00:00:00 TRACK 04 AUDIO TITLE "Clear the tracks!" PERFORMER "Trevor Jones" INDEX 00 02:21:06FILE "04 - Clear the tracks!.wav" WAVE INDEX 01 00:00:00 TRACK 05 AUDIO TITLE "Reflections" PERFORMER "Trevor Jones" INDEX 00 04:02:30FILE "05 - Reflections.wav" WAVE INDEX 01 00:00:00 TRACK 06 AUDIO TITLE "Runaway train" PERFORMER "Trevor Jones" INDEX 00 03:00:36FILE "06 - Runaway train.wav" WAVE INDEX 01 00:00:00 TRACK 07 AUDIO TITLE "Prison memories the yellow rose of Texas" PERFORMER "Trevor Jones" INDEX 00 04:45:58FILE "07 - Prison memories the yellow rose of Texas.wav" WAVE INDEX 01 00:00:00FILE "08 - Collision course.wav" WAVE TRACK 08 AUDIO TITLE "Collision course" PERFORMER "Trevor Jones" INDEX 01 00:00:00FILE "09 - Past, present, future .wav" WAVE TRACK 09 AUDIO TITLE "Past, present, future?" PERFORMER "Trevor Jones" INDEX 01 00:00:00FILE "10 - Red for danger.wav" WAVE TRACK 10 AUDIO TITLE "Red for danger" PERFORMER "Trevor Jones" INDEX 01 00:00:00 TRACK 11 AUDIO TITLE "Gloria" PERFORMER "Trevor Jones" INDEX 00 03:08:33FILE "11 - Gloria.wav" WAVE INDEX 01 00:00:00FILE "12 - End of the line.wav" WAVE TRACK 12 AUDIO TITLE "End of the line" PERFORMER "Trevor Jones" INDEX 01 00:00:00

Лог-файл CUETools

[CUETools log; Date: 16.12.2015 21:27:58; Version: 2.1.5]Pregap length 00:00:33.[CTDB TOCID: G71vVJUIiiSpwxGSS.sYg4hkztc-] found.Track | CTDB Status 1 | (2/2) Accurately ripped 2 | (2/2) Accurately ripped 3 | (2/2) Accurately ripped 4 | (2/2) Accurately ripped 5 | (2/2) Accurately ripped 6 | (2/2) Accurately ripped 7 | (2/2) Accurately ripped 8 | (2/2) Accurately ripped 9 | (2/2) Accurately ripped 10 | (2/2) Accurately ripped 11 | (2/2) Accurately ripped 12 | (2/2) Accurately ripped[AccurateRip ID: 0011304f-00a32949-9b09cb0c] found.Track [ CRC | V2 ] Status 01 [14bfc4f0|ef7c9779] (3+0/3) Accurately ripped 02 [a0172328|cdbbdb38] (3+0/3) Accurately ripped 03 [55cedbeb|25557e3b] (3+0/3) Accurately ripped 04 [952e81b6|d9ce9906] (3+0/3) Accurately ripped 05 [4ddb19a3|6a1e1915] (3+0/3) Accurately ripped 06 [5340d935|5455982d] (3+0/3) Accurately ripped 07 [f6bd8320|09ce56b4] (3+0/3) Accurately ripped 08 [8141f870|175b9f6c] (3+0/3) Accurately ripped 09 [b60c7712|8f732ff8] (3+0/3) Accurately ripped 10 [c042b893|d46cb78a] (3+0/3) Accurately ripped 11 [eed7053a|99121a6a] (3+0/3) Accurately ripped 12 [77d4690b|826fffa2] (3+0/3) Accurately ripped
Track Peak [ CRC32 ] [W/O NULL] [ LOG ] -- 64,9 [561597A2] [018E9066] 01 52,6 [7FFC7217] [E62B0628] CRC32 02 58,7 [99367DBF] [5E7ADE71] CRC32 03 34,0 [67B2E750] [6A472005] CRC32 04 49,6 [734DAAE7] [0D5C3A97] CRC32 05 36,0 [6A19E3BE] [CCAFC150] CRC32 06 64,9 [E94294D3] [19F6A7BB] CRC32 07 47,0 [C8E23E1F] [1520B041] CRC32 08 33,2 [A93C3335] [95BCDDF1] CRC32 09 39,3 [17A05AB8] [D7B7E6D9] CRC32 10 43,3 [1C002991] [FFE13130] CRC32 11 42,1 [52E124A9] [D2F021B8] CRC32 12 43,8 [14031935] [1DB29EAE] CRC32
[teatrix.ru].t12252.torrent 
Торрент: Зарегистрирован [ 2015-12-17 01:15 ] · DC4BF4B6DF6CD3C93F12CB6E0A54EEB290DB4ED1

Скачать .torrent

Скачать

18 KB

Статус: проверено
Скачан: 1 раз
Размер: 212 MB
terms.php



Быстрый ответ

Имя:

      
Для отправки сообщений необходимо включить JavaScript
Показать сообщения:    

Текущее время: 07-Дек 23:11

Часовой пояс: UTC + 3


Вы можете начинать темы
Вы можете отвечать на сообщения
Вы не можете редактировать свои сообщения
Вы не можете удалять свои сообщения
Вы не можете голосовать в опросах
Вы не можете прикреплять файлы к сообщениям
Вы можете скачивать файлы