[TR24][SM][OF] Franz Liszt - le piano de demain - The piano of tomorrow: Fantasia and Fugue; Sonata... (Roger Muraro) - 2015 (Classical, Piano)


Статистика раздачи [Обновить пиров]
Размер:  1024 MB   |    Зарегистрирован:  11 месяцев 23 дня   |    Скачан:  0 раз

Полного источника не было: Никогда

Личеров:  2  [  0 KB/s  ]   Подробная статистика пиров
 
   
 
 
 

[Цитировать]

Franz Liszt - The piano of tomorrow
Год издания: 2015
Жанр: Classical, Piano
Издатель (лейбл): La Dolce Volta
Продолжительность: 01:14:47
Наличие сканов: да-Контейнер: FLAC (*.flac)
Тип рипа: tracks
Разрядность: 24bit / 88.2kHz
Количество каналов: 2.0-Исполнители:
Roger Muraro - Piano

Треклист:

Fantasia and Fugue on Bach, S. 529/2
01. I. Moderato (a capriccio) (03:59)
02. II. Andante (08:28)
03. Spinnerlied aus dem Fliegenden Hollander, S. 440 (06:40)
04. Tristan und Isolde, Isoldens Liebestod, S. 447 (06:56)
05. Hungarian Rhapsody No. 10 in E Major, S. 244/10 (05:30)
06. Saint Franc?ois de Paule marchant sur les flots, S. 175 (08:29)
Sonata in B Minor, S. 178
07. I. Lento assai (11:25)
08. II. Andante sostenuto (07:05)
09. III. Allegro energico (10:21)
10. Hungarian Rhapsody No. 15 in A Minor, S. 244/15 - "Rakoczi March" (Bonus Track) (05:54)

Динамический диапазон - DR13:

foobar2000 1.3.2 / Замер динамического диапазона (DR) 1.1.1Дата отчёта: 2015-12-16 21:04:30
--------------------------------------------------------------------------------Анализ: Roger Muraro / Liszt: The piano of tomorrow--------------------------------------------------------------------------------
DR Пики RMS Продолжительность трека--------------------------------------------------------------------------------DR12 -0.48 дБ -16.45 дБ 3:59 1/10-Fantasia and Fugue on Bach, S. 529/2 - I. Moderato (a capriccio)DR12 -0.53 дБ -15.69 дБ 8:28 2/10-II. AndanteDR14 -5.42 дБ -24.20 дБ 6:40 3/10-Spinnerlied aus dem Fliegenden Holländer, S. 440DR14 -0.62 дБ -20.41 дБ 6:56 4/10-Tristan und Isolde, Isoldens Liebestod, S. 447DR14 -1.48 дБ -20.72 дБ 5:30 5/10-Hungarian Rhapsody No. 10 in E Major, S. 244/10DR12 -0.60 дБ -17.38 дБ 8:29 6/10-Saint François de Paule marchant sur les flots, S. 175DR13 -0.82 дБ -18.87 дБ 11:25 7/10-Sonata in B Minor, S. 178 - I. Lento assaiDR13 -1.70 дБ -21.91 дБ 7:05 8/10-II. Andante sostenutoDR12 -0.64 дБ -18.79 дБ 10:21 9/10-III. Allegro energicoDR12 -0.57 дБ -17.32 дБ 5:54 10/10-Hungarian Rhapsody No. 15 in A Minor, S. 244/15 - "Rákóczi March" (Bonus Track)--------------------------------------------------------------------------------
Количество треков: 10Реальные значения DR: DR13
Частота: 88200 ГцКаналов: 2Разрядность: 24Битрейт: 2005 кбит/сКодек: FLAC================================================================================
[teatrix.ru].t12254.torrent 
Торрент: Зарегистрирован [ 2015-12-17 01:15 ] · 1ACAD313CB9959CB3919A397D6C9A5943ED1B687

Скачать .torrent

Скачать

22 KB

Статус: проверено
Скачан: 0 раз
Размер: 1024 MB
terms.php



Быстрый ответ

Имя:

      
Для отправки сообщений необходимо включить JavaScript
Показать сообщения:    

Текущее время: 09-Дек 22:18

Часовой пояс: UTC + 3


Вы можете начинать темы
Вы можете отвечать на сообщения
Вы не можете редактировать свои сообщения
Вы не можете удалять свои сообщения
Вы не можете голосовать в опросах
Вы не можете прикреплять файлы к сообщениям
Вы можете скачивать файлы