Сердце / The Heart / Kokoro (Канэто Синдо / Kaneto Shindo) [1973, Япония, драма, DVDRip] (Rus) (Eng) + Sub


Статистика раздачи [Обновить пиров]
Размер:  1.42 GB   |    Зарегистрирован:  11 месяцев 24 дня   |    Скачан:  0 раз

Полного источника не было: Никогда

Личеров:  2  [  0 KB/s  ]   Подробная статистика пиров
 
   
 
 
 

[Цитировать]

Сердце / The Heart / Kokoro / 心
Страна: Япония
Жанр: драма
Год выпуска: 1973
Продолжительность: 01:29:08
Перевод 1: Субтитры русские - дед_сто_лет©
Перевод 2: Субтитры английские - lauwlw & codstulle
Оригинальная аудиодорожка: японский
Режиссер: Канэто Синдо / Kaneto Shindo
В ролях: Нобуко ОТОВА, АНРИ, Нобору МАЦУХАСИ, Кадзунака ЦУДЗИ, Тайдзи ТОНОЯМА, Ясуо АРАКАВА, Гайтоми КОТАКЭ
Описание: События знаменитого романа Нацумэ Сосэки перенесены в 70-е годы ХХ века. Герои обезличены и приобрели условные имена. Господин K снимает комнату у пожилой госпожи М, которая не прочь отдать за него свою дочь I. Но всё осложняется, когда появляется S, друг господина К. На самом деле в эпоху джинсов тоже существует любовь, дружба, предательство и расплата. ©
> > > > > > >
Качество видео: DVDRip
Формат видео: AVI
Видео: 720x544 (1.32:1), 23.976 fps, XviD build 50 ~2081 kbps avg, 0.22 bit/pixel
Аудио: 48 kHz, AC3 Dolby Digital, 2/0 (L,R) ch, ~192 kbps
Формат субтитров: softsub (SRT)
Доп. информация о субтитрах: дед_сто_лет

Пример субтитров

290
00:26:05,564 --> 00:26:08,408
После этого он от всех закрылся.
291
00:26:09,868 --> 00:26:12,542
Поговорите с ним,
пожалуйста, если получится.
292
00:26:13,806 --> 00:26:17,618
Он наверняка отзовется
на человеческое тепло.
293
00:26:28,187 --> 00:26:30,463
А вы сами ничего не можете?
294
00:26:30,856 --> 00:26:32,267
Что именно?
295
00:26:33,392 --> 00:26:36,703
Но ведь есть проявления
мужской дружбы.
296
00:26:38,630 --> 00:26:41,201
Он слишком замкнут на себе.
297
00:26:41,633 --> 00:26:44,477
Не хотите летом съездить на родину?
298
00:26:44,670 --> 00:26:48,208
У нас обоих больше нет родного дома.
299
00:26:49,008 --> 00:26:51,284
Я бы отправился с ним в путешествие.
300
00:26:51,376 --> 00:26:53,378
Не хотите съездить в Татэсина?
301
00:26:53,479 --> 00:26:57,120
Татэсина? Возле гор Яцугатакэ?
Это здорово!
302
00:26:57,182 --> 00:26:59,788
У друзей там горная избушка.
303
00:27:00,085 --> 00:27:02,793
Они постоянно
предлагают там пожить.
304
00:27:02,888 --> 00:27:04,196
Там прохладно.
305
00:30:54,419 --> 00:30:56,695
Вы не пошли на прогулку?
306
00:30:58,056 --> 00:31:01,936
Я только проснулся.
Здесь я могу как следует выспаться.
307
00:31:02,728 --> 00:31:04,935
Если вы приехали сюда спать,
тогда...
308
00:31:07,265 --> 00:31:09,836
Я завтра уеду.
309
00:31:10,068 --> 00:31:12,605
Оставляю всё на вас.
310
00:35:07,872 --> 00:35:09,852
Красивый цветок.
311
00:35:19,017 --> 00:35:22,260
- Как он называется?
- Колокольчик.
312
00:35:39,571 --> 00:35:41,881
- Я выиграл!
- Вот держите.
313
00:35:46,912 --> 00:35:48,323
Постой!

MediaInfo

General
Complete name : C:\Torrents\[ASIA]\Heart(1973)Kaneto.Shindo\Heart(1973)Kaneto.Shindo.avi
Format : AVI
Format/Info : Audio Video Interleave
File size : 1.42 GiB
Duration : 1h 29mn
Overall bit rate : 2 282 Kbps
Writing application : VirtualDubMod 1.5.4.1 (build 2178/release)
Writing library : VirtualDub-MPEG2 build 24600/release
Video
ID : 0
Format : MPEG-4 Visual
Format profile : Advanced Simple@L5
Format settings, BVOP : 1
Format settings, QPel : No
Format settings, GMC : No warppoints
Format settings, Matrix : Custom
Codec ID : XVID
Codec ID/Hint : XviD
Duration : 1h 29mn
Bit rate : 2 081 Kbps
Width : 720 pixels
Height : 544 pixels
Display aspect ratio : 4:3
Frame rate : 23.976 fps
Color space : YUV
Chroma subsampling : 4:2:0
Bit depth : 8 bits
Scan type : Progressive
Compression mode : Lossy
Bits/(Pixel*Frame) : 0.222
Stream size : 1.30 GiB (91%)
Writing library : XviD 1.2.1 (UTC 2008-12-04)
Audio
ID : 1
Format : AC-3
Format/Info : Audio Coding 3
Mode extension : CM (complete main)
Codec ID : 2000
Duration : 1h 29mn
Bit rate mode : Constant
Bit rate : 192 Kbps
Channel(s) : 2 channels
Channel positions : Front: L R
Sampling rate : 48.0 KHz
Bit depth : 16 bits
Compression mode : Lossy
Stream size : 122 MiB (8%)
Alignment : Split accross interleaves
Interleave, duration : 42 ms (1.00 video frame)
Interleave, preload duration : 500 ms

Скриншот c названием фильма

Скриншоты

[teatrix.ru].t12256.torrent 
Торрент: Зарегистрирован [ 2015-12-17 09:32 ] · 9D5F95C75D2867C8570DB46A4AA8FDFED21A9A77

Скачать .torrent

Скачать

15 KB

Статус: проверено
Скачан: 0 раз
Размер: 1.42 GB
terms.php



Быстрый ответ

Имя:

      
Для отправки сообщений необходимо включить JavaScript
Показать сообщения:    

Текущее время: 11-Дек 09:11

Часовой пояс: UTC + 3


Вы можете начинать темы
Вы можете отвечать на сообщения
Вы не можете редактировать свои сообщения
Вы не можете удалять свои сообщения
Вы не можете голосовать в опросах
Вы не можете прикреплять файлы к сообщениям
Вы можете скачивать файлы