Хилари / Hilary (Энтони Ходжсон / Anthony Hodgson) [1994, Великобритания, авторская анимация, абсурдный юмор, DVDRip] original + rus sub


 

[Цитировать]

Хилари / Hilary
Страна: Великобритания
Жанр: авторская анимация, абсурдный юмор
Год выпуска: 1994
Продолжительность: 00:09:28
Перевод: субтитры (alex.n42)
Cубтитры: русские
Режиссёр: Энтони Ходжсон / Anthony Hodgson
Композитор: Джонатан Уайтхаус / Jonathan Whitehouse
В ролях: Джон Вудвайн / John Woodvine
Описание: Однажды вечером папа решил немного помузицировать на пианино, но в тот же момент его малыш-сынок принялся стучать по ксилофону. Чтобы унять ребёнка, папа начинает рассказывать ему импровизированную сказку про принцессу Хилари...
Качество видео: DVDRip
Формат видео: AVI
Видео: 1929 kbps, 656х480 (4:3), 25.000 fps, MPEG-4 Visual (XviD)
Аудио: 128 kbps, 44.1 kHz, 2 channels, MPEG Audio (MP3)
Формат субтитров: softsub (SRT)

MediaInfo

General
Complete name : Hilary (1994).avi
Format : AVI
Format/Info : Audio Video Interleave
File size : 132 MiB
Duration : 8mn 57s
Overall bit rate : 2 066 Kbps
Writing library : VirtualDub build 35491/release
Video
ID : 0
Format : MPEG-4 Visual
Format profile : Advanced Simple@L5
Format settings, BVOP : 2
Format settings, QPel : No
Format settings, GMC : No warppoints
Format settings, Matrix : Default (H.263)
Codec ID : XVID
Codec ID/Hint : XviD
Duration : 8mn 57s
Bit rate : 1 929 Kbps
Width : 656 pixels
Height : 480 pixels
Display aspect ratio : 4:3
Frame rate : 25.000 fps
Color space : YUV
Chroma subsampling : 4:2:0
Bit depth : 8 bits
Scan type : Progressive
Compression mode : Lossy
Bits/(Pixel*Frame) : 0.245
Stream size : 124 MiB (93%)
Writing library : XviD 64
Audio
ID : 1
Format : MPEG Audio
Format version : Version 1
Format profile : Layer 3
Mode : Joint stereo
Mode extension : MS Stereo
Codec ID : 55
Codec ID/Hint : MP3
Duration : 8mn 56s
Bit rate mode : Constant
Bit rate : 128 Kbps
Channel(s) : 2 channels
Sampling rate : 44.1 KHz
Compression mode : Lossy
Stream size : 8.16 MiB (6%)
Alignment : Split accross interleaves
Interleave, duration : 40 ms (1.00 video frame)
Interleave, preload duration : 501 ms

Скриншот c названием фильма

Скриншоты

Пример субтитров

1
00:00:12,000 --> 00:00:15,090
ХИЛАРИ
2
00:01:17,120 --> 00:01:17,840
Не сейчас.
3
00:01:29,910 --> 00:01:31,360
Ай! Ай!
4
00:01:31,780 --> 00:01:32,950
Я расскажу тебе историю.
5
00:01:40,120 --> 00:01:43,170
Давным-давно жила-была принцесса,
её звали Хилари.
6
00:01:44,720 --> 00:01:48,680
Хилари работала в офисе резинового завода
на человека, имя которого она забыла.
7
00:01:49,000 --> 00:01:52,640
Она жила с матерью и отцом её матери,
которому было 76, он был глухой...
8
00:01:52,790 --> 00:01:56,630
и тайно ел собачий корм.
Хотя это было не такой уж и тайной.
9
00:01:57,950 --> 00:01:59,820
Хилари никогда не любила людей.
10
00:02:00,030 --> 00:02:01,690
Её лучшим другом была мышь по имени Линда,
11
00:02:01,770 --> 00:02:05,990
которую ей подарил отец, прежде чем
сбежал в Берлингтон с женщиной-почтальоншей
12
00:02:06,220 --> 00:02:07,880
на пятый день рождения Хилари.
13
00:02:09,320 --> 00:02:13,680
Днём позже пятого дня рождения Хилари
у Линды выпала большая часть шерсти,
и она умерла.



Показать сообщения:    

Текущее время: 02-Дек 23:06

Часовой пояс: UTC + 3


Вы не можете начинать темы
Вы не можете отвечать на сообщения
Вы не можете редактировать свои сообщения
Вы не можете удалять свои сообщения
Вы не можете голосовать в опросах
Вы не можете прикреплять файлы к сообщениям
Вы не можете скачивать файлы