Любовники / Les Amants (Луи Малль / Louis Malle) [1958, Франция, драма, HDRip] MVO (Film Prestige) + AVO (Янкелевич) + Sub Rus, Eng + Original Fre


 

[Цитировать]

Любовники / Les Amants
Страна: Франция
Жанр: драма
Год выпуска: 1958
Продолжительность: 01:30:53
Перевод: Профессиональный (многоголосый закадровый) - Film Prestige
Перевод: Авторский (одноголосый закадровый) - Роман Янкелевич
Cубтитры: русские, английские
Оригинальная аудиодорожка: французский

Режиссер: Луи Малль / Louis Malle
В ролях: Жан-Марк Бори, Жанна Моро, Ален Кюни, Хосе Луис де Вильялонга, Мишель Жирардон, Жюдит Магр, Гастон Модо, Клод Мансар, Люсьенна Амон, Пьер Фраг, Жиб Гроссак, Жоржетта Лобр
Описание: "Модернизированную версию фривольной новеллы Виван-Денона, современника Вольтера и Наполеона, Луи Маль снял по контрасту со своим джазовым нуаром "Лифт на эшафот". Вместо Майлза Дэвиса — Брамс. Вместо нервического Парижа — вневременное поместье, где Жанна, скучая от рутины брака с издателем Анри и адюльтера с игроком в поло Раулем, бросается очертя голову в роман с первым встречным Бернаром..." М.Трофименков
Качество видео: HDRip
Формат видео: AVI
Видео: 720x304 (2.37:1), 23.976 fps, XviD build 73 ~1899 kbps avg, 0.36 bit/pixel
Аудио: 48 kHz, AC3 Dolby Digital, 2/0 (L,R) ch, ~192 kbps - многоголосый
Аудио: 48 kHz, AC3 Dolby Digital, 2/0 (L,R) ch, ~192 kbps - авторский
Аудио: 48 kHz, AC3 Dolby Digital, 2/0 (L,R) ch, ~192 kbps - оригинал (отдельным файлом)

MediaInfo

Общее
Полное имя : H:\Les.amants.1958.hdrip_[1.46]_[teko]\Les.amants.1958.hdrip_[1.46].avi
Формат : AVI
Формат/Информация : Audio Video Interleave
Размер файла : 1,46 Гбайт
Продолжительность : 1 ч. 30 м.
Общий поток : 2298 Кбит/сек
Программа кодирования : VirtualDubMod 1.5.10.3 | www.virtualdub-fr.org || (build 2550/release)
Библиотека кодирования : VirtualDubMod build 2550/release
Видео
Идентификатор : 0
Формат : MPEG-4 Visual
Профиль формата : Advanced Simple@L5
Параметр BVOP формата : 1
Параметр QPel формата : Нет
Параметр GMC формата : Без точки перехода
Параметр матрицы формата : Выборочная
Идентификатор кодека : XVID
Идентификатор кодека/Подсказка : XviD
Продолжительность : 1 ч. 30 м.
Битрейт : 1900 Кбит/сек
Ширина : 720 пикселей
Высота : 304 пикселя
Соотношение сторон : 2,35:1
Частота кадров : 23,976 кадра/сек
Цветовое пространство : YUV
Субдискретизация насыщенности : 4:2:0
Битовая глубина : 8 бит
Тип развёртки : Прогрессивная
Метод сжатия : С потерями
Бит/(Пиксели*Кадры) : 0.362
Размер потока : 1,21 Гбайт (83%)
Библиотека кодирования : XviD 73
Аудио #1
Идентификатор : 1
Формат : AC-3
Формат/Информация : Audio Coding 3
Расширение режима : CM (complete main)
Параметр Endianness формата : Big
Идентификатор кодека : 2000
Продолжительность : 1 ч. 30 м.
Вид битрейта : Постоянный
Битрейт : 192 Кбит/сек
Каналы : 2 канала
Расположение каналов : Front: L R
Частота : 48,0 КГц
Битовая глубина : 16 бит
Метод сжатия : С потерями
Размер потока : 125 Мбайт (8%)
Выравнивание : Разделение по промежуткам
Продолжительность промежутка : 42 мс. (1,00 видеокадр)
Время предзагрузки промежутка : 500 мс.
Аудио #2
Идентификатор : 2
Формат : AC-3
Формат/Информация : Audio Coding 3
Расширение режима : CM (complete main)
Параметр Endianness формата : Big
Идентификатор кодека : 2000
Продолжительность : 1 ч. 30 м.
Вид битрейта : Постоянный
Битрейт : 192 Кбит/сек
Каналы : 2 канала
Расположение каналов : Front: L R
Частота : 48,0 КГц
Битовая глубина : 16 бит
Метод сжатия : С потерями
Размер потока : 125 Мбайт (8%)
Выравнивание : Разделение по промежуткам
Продолжительность промежутка : 42 мс. (1,00 видеокадр)
Время предзагрузки промежутка : 500 мс.


Последний раз редактировалось: admin (2015-12-18 19:56), всего редактировалось 1 раз

Топик был перенесен из форума Арт-хаус и авторское кино в форум Арт-хаус и авторское кино (HD Video)
admin


Показать сообщения:    

Текущее время: 09-Дек 12:47

Часовой пояс: UTC + 3


Вы не можете начинать темы
Вы не можете отвечать на сообщения
Вы не можете редактировать свои сообщения
Вы не можете удалять свои сообщения
Вы не можете голосовать в опросах
Вы не можете прикреплять файлы к сообщениям
Вы не можете скачивать файлы