Клык / Kynodontas (Йоргос Лантимос / Giorgos Lanthimos) [2009, Греция, драма, BDRip] VO


 

[Цитировать]

Клык / Kynodontas
Страна: Греция
Жанр: драма
Год выпуска: 2009
Продолжительность: 01:36:54
Перевод: Профессиональный (одноголосый закадровый) R5
Cубтитры: нет

Режиссер: Йоргос Лантимос / Giorgos Lanthimos
В ролях: Кристос Стергиоглоу, Мишель Вэлли, Аггелики Папоулья, Мари Тсони, Христос Пассалис, Анна Калаицидоу, Александр Вулгарис
Описание: В доме на окраине города живут мать, отец и трое детей. Дом окружен высоким забором, за который дети никогда не выходили. Они растут, развлекаются, учатся и играют так, как считают нужным их родители, не испытывая никакого влияния со стороны. Они верят, что самолеты, пролетающие над ними, игрушечные, а «зомби» - это название желтого цветочка.
Взрослые дети знают главный закон семьи: «нельзя покинуть дом, до тех пор, пока у тебя не выпадет правый клык». Они уже давно живут в ожидании этого момента, не подозревая, что он не наступит никогда...

Качество видео: BDRip
Формат видео: AVI
Видео: 672x288 (2.33:1), 23.976 fps, XviD build 73 ~935 kbps avg, 0.20 bit/pixel
Аудио: 48 kHz, MPEG Layer 3, 2 ch, ~128.00 kbps avg

MediaInfo

Общее
Полное имя : H:\Kynodontas.2009.bdrip_[745]_[teko].avi
Формат : AVI
Формат/Информация : Audio Video Interleave
Размер файла : 744 Мбайт
Продолжительность : 1 ч. 36 м.
Общий поток : 1073 Кбит/сек
Программа кодирования : VirtualDubMod 1.5.10.3 | www.virtualdub-fr.org || (build 2550/release)
Библиотека кодирования : VirtualDubMod build 2550/release
Видео
Идентификатор : 0
Формат : MPEG-4 Visual
Профиль формата : Advanced Simple@L5
Параметр BVOP формата : 2
Параметр QPel формата : Нет
Параметр GMC формата : Без точки перехода
Параметр матрицы формата : Выборочная
Идентификатор кодека : XVID
Идентификатор кодека/Подсказка : XviD
Продолжительность : 1 ч. 36 м.
Битрейт : 936 Кбит/сек
Ширина : 672 пикселя
Высота : 288 пикселей
Соотношение сторон : 2,35:1
Частота кадров : 23,976 кадра/сек
Цветовое пространство : YUV
Субдискретизация насыщенности : 4:2:0
Битовая глубина : 8 бит
Тип развёртки : Прогрессивная
Метод сжатия : С потерями
Бит/(Пиксели*Кадры) : 0.202
Размер потока : 649 Мбайт (87%)
Библиотека кодирования : XviD 73
Аудио
Идентификатор : 1
Формат : MPEG Audio
Версия формата : Version 1
Профиль формата : Layer 3
Идентификатор кодека : 55
Идентификатор кодека/Подсказка : MP3
Продолжительность : 1 ч. 36 м.
Вид битрейта : Постоянный
Битрейт : 128 Кбит/сек
Каналы : 2 канала
Частота : 48,0 КГц
Метод сжатия : С потерями
Размер потока : 88,7 Мбайт (12%)
Выравнивание : Соединение по промежуткам
Продолжительность промежутка : 42 мс. (1,00 видеокадр)
Время предзагрузки промежутка : 504 мс.
Библиотека кодирования : LAME3.98r
Настройки программы : -m s -V 4 -q 2 -lowpass 17 -b 128


Последний раз редактировалось: admin (2015-12-18 20:12), всего редактировалось 1 раз

Топик был перенесен из форума Арт-хаус и авторское кино в форум Арт-хаус и авторское кино (HD Video)
admin


Показать сообщения:    

Текущее время: 11-Дек 11:06

Часовой пояс: UTC + 3


Вы не можете начинать темы
Вы не можете отвечать на сообщения
Вы не можете редактировать свои сообщения
Вы не можете удалять свои сообщения
Вы не можете голосовать в опросах
Вы не можете прикреплять файлы к сообщениям
Вы не можете скачивать файлы