Прощай, речь / Adieu au langage / Goodbye to Language (Жан-Люк Годар / Jean-Luc Godard) [2014, Франция, драма, BDRip] MVO (R5)


 

[Цитировать]

Прощай, речь / Adieu au langage / Goodbye to Language
Страна: Франция
Жанр: драма
Год выпуска: 2014
Продолжительность: 01:09:17
Перевод: Профессиональный (многоголосый закадровый) R5
Cубтитры: нет

Режиссер: Жан-Люк Годар / Jean-Luc Godard
В ролях: Элоиз Годе, Камель Абдели, Ришар Шевалье, Зои Брунэо, Кристиан Григорий, пёс Рокси, Джессика Эриксон, Мари Ручат, Джереми Дзампатти, Дэниэл Людвиг, Джино Сиконолфи
Описание: Он и она — два мира, утративших связь друг с другом. Их единственный проводник — собака. Без слов животное транслирует любовь в оба конца, и эта слабая связь неожиданно крепнет. Но хватит ли ее, чтобы разжечь былые чувства?
Качество видео: BDRip
Формат видео: AVI
Видео: 656x368 (1.78:1), 23.976 fps, XviD build 73 ~1363 kbps avg, 0.23 bit/pixel
Аудио: 48 kHz, MPEG Layer 3, 2 ch, ~128.00 kbps avg

MediaInfo

Общее
Полное имя : H:\Adieu.au.langage.2014.bdrip_[745]_[teko].avi
Формат : AVI
Формат/Информация : Audio Video Interleave
Размер файла : 744 Мбайт
Продолжительность : 1 ч. 9 м.
Общий поток : 1501 Кбит/сек
Программа кодирования : VirtualDubMod 1.5.10.3 | www.virtualdub-fr.org || (build 2550/release)
Библиотека кодирования : VirtualDubMod build 2550/release
Видео
Идентификатор : 0
Формат : MPEG-4 Visual
Профиль формата : Advanced Simple@L5
Параметр BVOP формата : 2
Параметр QPel формата : Нет
Параметр GMC формата : Без точки перехода
Параметр матрицы формата : Выборочная
Идентификатор кодека : XVID
Идентификатор кодека/Подсказка : XviD
Продолжительность : 1 ч. 9 м.
Битрейт : 1364 Кбит/сек
Ширина : 656 пикселей
Высота : 368 пикселей
Соотношение сторон : 16:9
Частота кадров : 23,976 кадра/сек
Цветовое пространство : YUV
Субдискретизация насыщенности : 4:2:0
Битовая глубина : 8 бит
Тип развёртки : Прогрессивная
Метод сжатия : С потерями
Бит/(Пиксели*Кадры) : 0.236
Размер потока : 676 Мбайт (91%)
Библиотека кодирования : XviD 73
Аудио
Идентификатор : 1
Формат : MPEG Audio
Версия формата : Version 1
Профиль формата : Layer 3
Идентификатор кодека : 55
Идентификатор кодека/Подсказка : MP3
Продолжительность : 1 ч. 9 м.
Вид битрейта : Постоянный
Битрейт : 128 Кбит/сек
Каналы : 2 канала
Частота : 48,0 КГц
Метод сжатия : С потерями
Размер потока : 63,4 Мбайт (9%)
Выравнивание : Соединение по промежуткам
Продолжительность промежутка : 42 мс. (1,00 видеокадр)
Время предзагрузки промежутка : 504 мс.
Библиотека кодирования : LAME3.98r
Настройки программы : -m s -V 4 -q 2 -lowpass 17 -b 128

Топик был перенесен из форума Арт-хаус и авторское кино в форум Арт-хаус и авторское кино (HD Video)
admin


Показать сообщения:    

Текущее время: 07-Дек 17:28

Часовой пояс: UTC + 3


Вы не можете начинать темы
Вы не можете отвечать на сообщения
Вы не можете редактировать свои сообщения
Вы не можете удалять свои сообщения
Вы не можете голосовать в опросах
Вы не можете прикреплять файлы к сообщениям
Вы не можете скачивать файлы