(Classical / Symphony / Orchestral / Choral) Дмитрий Шостакович - Симфония № 5 | Zoltan Kodaly - «Folszallott a pava» (The Peacock) — Variations on a Hungarian Folksong (Istvan Kertesz, 1962/1970) - 2003, FLAC (tracks+.cue) lossless


 

[Цитировать]

Дмитрий Шостакович (1906–1975)
Симфония № 5


Zoltan Kodaly (1882–1967)
«Fölszállott a páva» (The Peacock)
Variations on a Hungarian Folksong


Orchestre de la Suisse Romande
London Symphony Chorus & Orchestra
István Kertész conductor


Жанр: Classical / Symphony / Orchestral / Choral
Даты записи: 1962, 1970
Формат записи: ADD, Stereo
Год издания диска: 2003
Издатель (лейбл): Testament
Номер по каталогу: SBT 1290
Аудиокодек: FLAC
Тип рипа: tracks+.cue
Битрейт аудио: lossless
Продолжительность: 1:11:31
Наличие сканов в содержимом раздачи: да
Источник: What.CD
Релизёр: PCzar


Tracklist / Треклист
Дмитрий Шостакович (Dmitri Shostakovich)
Симфония № 5 ре минор (Symphony No. 5 in D minor), Op. 47 - 42:07
I. Moderato - 15:11
  • II. Allegretto - 4:39
  • III. Largo - 13:17
  • IV. Allegro non troppo - 9:00
    Orchestre de la Suisse Romande
    Recorded: Victoria Hall, Geneva, 13–14 May 1962
    Zoltán Kodály
    «Fölszállott a páva» (The Peacock) - 2:59
    London Symphony Chorus
    Recorded: Kingsway Hall, London, 8–10 October 1970
    «Fölszállott a páva» (The Peacock), Variations on a Hungarian Folksong - 26:25
    Tema - 3:32
  • Variazioni I-VI - 2:58
  • Variazioni VII-X - 2:59
  • Variazioni XI-XII - 6:29
  • Variazioni XIII-XVI - 6:25
  • Finale - 4:02
    London Symphony Orchestra
    Recorded: Kingsway Hall, London, 8–10 October 1970


    -

    EAC log / Отчёт EAC

    Exact Audio Copy V1.0 beta 3 from 29. August 2011
    EAC extraction logfile from 3. November 2013, 11:34
    Istvan Kertesz / Istvan Kertesz - Shostakovich & Kodaly
    Used drive : TSSTcorpCDDVDW SH-222BB Adapter: 2 ID: 0
    Read mode : SecureUtilize accurate stream : YesDefeat audio cache : YesMake use of C2 pointers : No
    Read offset correction : 6Overread into Lead-In and Lead-Out : NoFill up missing offset samples with silence : YesDelete leading and trailing silent blocks : NoNull samples used in CRC calculations : YesUsed interface : Native Win32 interface for Win NT & 2000Gap handling : Appended to previous track
    Used output format : User Defined EncoderSelected bitrate : 192 kBit/sQuality : HighAdd ID3 tag : NoCommand line compressor : C:\Program Files (x86)\flac-1.3.0\flac.exeAdditional command line options : -T "artist=%artist%" -T "title=%title%" -T "album=%albumtitle%" -T "date=%year%" -T "tracknumber=%tracknr%" -T "genre=%genre%" -T "comment=%comment%" -T "composer=%composer%" -8 %source%
    TOC of the extracted CD
    Track | Start | Length | Start sector | End sector --------------------------------------------------------- 1 | 0:00.00 | 15:11.25 | 0 | 68349 2 | 15:11.25 | 4:38.45 | 68350 | 89244 3 | 19:49.70 | 13:17.12 | 89245 | 149031 4 | 33:07.07 | 9:00.28 | 149032 | 189559 5 | 42:07.35 | 2:59.20 | 189560 | 203004 6 | 45:06.55 | 3:31.57 | 203005 | 218886 7 | 48:38.37 | 2:57.50 | 218887 | 232211 8 | 51:36.12 | 2:59.05 | 232212 | 245641 9 | 54:35.17 | 6:29.05 | 245642 | 274821 10 | 61:04.22 | 6:25.23 | 274822 | 303719 11 | 67:29.45 | 4:01.60 | 303720 | 321854
    Track 1
    Filename H:\EAC NEW Rips\01 - Shostakovich, Symphony Nr. 5, op. 57 - I. Moderato.wav
    Pre-gap length 0:00:02.00
    Peak level 97.4 % Extraction speed 5.2 X Track quality 99.9 % Test CRC 77E92309 Copy CRC 77E92309 Track not present in AccurateRip database Copy OK
    Track 2
    Filename H:\EAC NEW Rips\02 - Shostakovich, Symphony Nr. 5, op. 57 - II. Allegretto.wav
    Peak level 97.2 % Extraction speed 6.0 X Track quality 100.0 % Test CRC A5AA41B3 Copy CRC A5AA41B3 Track not present in AccurateRip database Copy OK
    Track 3
    Filename H:\EAC NEW Rips\03 - Shostakovich, Symphony Nr. 5, op. 57 - III. Largo.wav
    Peak level 94.6 % Extraction speed 6.7 X Track quality 99.9 % Test CRC 625E169F Copy CRC 625E169F Track not present in AccurateRip database Copy OK
    Track 4
    Filename H:\EAC NEW Rips\04 - Shostakovich, Symphony Nr. 5, op. 57 - IV. Allegro non troppo.wav
    Peak level 95.3 % Extraction speed 7.8 X Track quality 100.0 % Test CRC 62D46EDE Copy CRC 62D46EDE Track not present in AccurateRip database Copy OK
    Track 5
    Filename H:\EAC NEW Rips\05 - Kodaly, The Peacock.wav
    Pre-gap length 0:00:10.17
    Peak level 84.4 % Extraction speed 5.4 X Track quality 99.9 % Test CRC DF375422 Copy CRC DF375422 Track not present in AccurateRip database Copy OK
    Track 6
    Filename H:\EAC NEW Rips\06 - Kodaly, The Peacock 'Variations on a Hungarian folk-song' - Theme. Moderato.wav
    Peak level 74.2 % Extraction speed 7.7 X Track quality 100.0 % Test CRC 11E82202 Copy CRC 11E82202 Track not present in AccurateRip database Copy OK
    Track 7
    Filename H:\EAC NEW Rips\07 - Kodaly, The Peacock 'Variations on a Hungarian folk-song' - Var. I-VI.wav
    Peak level 95.8 % Extraction speed 7.5 X Track quality 100.0 % Test CRC 03D22B75 Copy CRC 03D22B75 Track not present in AccurateRip database Copy OK
    Track 8
    Filename H:\EAC NEW Rips\08 - Kodaly, The Peacock 'Variations on a Hungarian folk-song' - Var. VII-X.wav
    Peak level 88.7 % Extraction speed 7.7 X Track quality 100.0 % Test CRC 040439EC Copy CRC 040439EC Track not present in AccurateRip database Copy OK
    Track 9
    Filename H:\EAC NEW Rips\09 - Kodaly, The Peacock 'Variations on a Hungarian folk-song' - Var. XI-XII.wav
    Peak level 83.5 % Extraction speed 7.5 X Track quality 99.9 % Test CRC 76F7F024 Copy CRC 76F7F024 Track not present in AccurateRip database Copy OK
    Track 10
    Filename H:\EAC NEW Rips\10 - Kodaly, The Peacock 'Variations on a Hungarian folk-song' - Var. XIII-XVI.wav
    Peak level 97.2 % Extraction speed 9.0 X Track quality 100.0 % Test CRC B7CD666B Copy CRC B7CD666B Track not present in AccurateRip database Copy OK
    Track 11
    Filename H:\EAC NEW Rips\11 - Kodaly, The Peacock 'Variations on a Hungarian folk-song' - Finale. Vivace.wav
    Peak level 99.0 % Extraction speed 8.7 X Track quality 100.0 % Test CRC 4E91D71E Copy CRC 4E91D71E Track not present in AccurateRip database Copy OK
    None of the tracks are present in the AccurateRip database
    No errors occurred
    End of status report
    ---- CUETools DB Plugin V2.1.3
    [CTDB TOCID: s0g04FT6r8rQOs3DFen9Zo2X934-] disk not present in database, Submit result: s0g04FT6r8rQOs3DFen9Zo2X934- has been uploaded
    ==== Log checksum A5D455680B6B921C4F3E979A8BFC20668E5A708CD8CC3788A9985CB6CEFE359B ====

    auCDtect Task Manager log / Отчёт auCDtect Task Manager

    -----------------------
    DON'T MODIFY THIS FILE
    -----------------------
    PERFORMER: auCDtect Task Manager, ver. 1.5.1RC3 build 1.5.1.4Copyright (c) 2008-2010 y-soft. All rights reserved
    ANALYZER: auCDtect: CD records authenticity detector, version 0.8.2Copyright (c) 2004 Oleg Berngardt. All rights reserved.Copyright (c) 2004 Alexander Djourik. All rights reserved.
    FILE: 07 - ''Foelszallott a pava'' (The Peacock), Variations on a Hungarian Folksong - Variazioni I-VI.flac Size: 17281122 Hash: 59D45A3B30CEA36D5C53423F4155F10A Accuracy: -m0 Conclusion: CDDA 100% Signature: 3CCDFC35FFA5DF687611FC9140CA369580FBFA03FILE: 06 - ''Foelszallott a pava'' (The Peacock), Variations on a Hungarian Folksong - Tema.flac Size: 18364888 Hash: E86A9F41D115C4B54F972152E4C55F12 Accuracy: -m0 Conclusion: CDDA 100% Signature: D7BEA5B49F02D0F47323A93AFBD651884F928241FILE: 05 - ''Foelszallott a pava'' (The Peacock).flac Size: 15387611 Hash: D3725478BE10A764D0F8A368A77DAB31 Accuracy: -m0 Conclusion: CDDA 100% Signature: 0B042C347C6856D1F576B2B9E65A3BE7DFAF3591FILE: 04 - Symphony No. 5 in D minor, Op. 47 - IV. Allegro non troppo.flac Size: 52852238 Hash: 77A4D5781811FD1845B064EAF260B9C5 Accuracy: -m0 Conclusion: CDDA 100% Signature: CE5E92F217F5146EE80FD7D10DF97C98568C66D9FILE: 03 - Symphony No. 5 in D minor, Op. 47 - III. Largo.flac Size: 68855396 Hash: 3B29F323A1338A8E85C25E1C1C4DA50E Accuracy: -m0 Conclusion: CDDA 99% Signature: CF349DA10B6C6C35F29CBF13A01770DD5BA99784FILE: 02 - Symphony No. 5 in D minor, Op. 47 - II. Allegretto.flac Size: 25094062 Hash: 0F68861DF263F724F973442EAC55F9D1 Accuracy: -m0 Conclusion: CDDA 100% Signature: 9124BAACFAF1E26094E3B1C388B70F834C064A81FILE: 01 - Symphony No. 5 in D minor, Op. 47 - I. Moderato.flac Size: 83585420 Hash: B53DA6B35EA8D68A762207B9B7EDD7FD Accuracy: -m0 Conclusion: CDDA 100% Signature: D75D060D3D31EA0FA6E20587F8612E4D967C3F37FILE: 11 - ''Foelszallott a pava'' (The Peacock), Variations on a Hungarian Folksong - Finale.flac Size: 25712894 Hash: D7540604B6561BCFEABE49DDF473BD38 Accuracy: -m0 Conclusion: CDDA 99% Signature: 084266DECA3C2C8CFA513F6D8861A8C478511089FILE: 10 - ''Foelszallott a pava'' (The Peacock), Variations on a Hungarian Folksong - Variazioni XIII-XVI.flac Size: 35992224 Hash: E73D6D6F0B8938590781EAE4D2073607 Accuracy: -m0 Conclusion: CDDA 100% Signature: BA2901E4ED76CE7484F0660565D4AB018E8A67A3FILE: 09 - ''Foelszallott a pava'' (The Peacock), Variations on a Hungarian Folksong - Variazioni XI-XII.flac Size: 37817155 Hash: E369C9CBC0E51922459B265E26BB1A71 Accuracy: -m0 Conclusion: CDDA 100% Signature: 46BC61B983F5B54D8F059B8C81A4233A7EF01FC7FILE: 08 - ''Foelszallott a pava'' (The Peacock), Variations on a Hungarian Folksong - Variazioni VII-X.flac Size: 17655813 Hash: 20FB3D69BC3D0A02A2CB2080864A81F2 Accuracy: -m0 Conclusion: CDDA 100% Signature: 8434B3FBC6EE938301180B5BB01CB1709FB54A89

    CUETools log / Отчёт CUETools

    [CUETools log; Date: 16.12.2015 12:59:22; Version: 2.1.4][AccurateRip ID: 00230a0a-011d9f0d-ac10c30b] found.Track [ CRC | V2 ] Status 01 [bdf5e709|f194153f] (0+2/2) Accurately ripped 02 [9e47318e|a837085b] (0+2/2) Accurately ripped 03 [3ec92dbe|4ec54a01] (0+2/2) Accurately ripped 04 [b70224dc|5c11c40e] (0+2/2) Accurately ripped 05 [e111b83b|b1e40f61] (0+2/2) Accurately ripped 06 [112c9d9f|d7700847] (0+2/2) Accurately ripped 07 [083662ef|4b69d237] (0+2/2) Accurately ripped 08 [c6b1d12b|6ddd9e29] (0+2/2) Accurately ripped 09 [65e73ec9|904b1f21] (0+2/2) Accurately ripped 10 [1749ada5|475f49aa] (0+2/2) Accurately ripped 11 [3da67460|690cd195] (0+2/2) Accurately ripped
    Track Peak [ CRC32 ] [W/O NULL] [ LOG ] -- 99,0 [DF99A548] [AFE67B5B] 01 97,4 [77E92309] [9E996C97] CRC32 02 97,2 [A5AA41B3] [A06940C7] CRC32 03 94,6 [625E169F] [BD0E3E43] CRC32 04 95,3 [62D46EDE] [5C6ED8FC] CRC32 05 84,4 [DF375422] [FB2A060E] CRC32 06 74,2 [11E82202] [53DE5DB2] CRC32 07 95,7 [03D22B75] [21D1590B] CRC32 08 88,7 [040439EC] [C3825C6B] CRC32 09 83,5 [76F7F024] [C3760A90] CRC32 10 97,2 [B7CD666B] [364B1367] CRC32 11 99,0 [4E91D71E] [4E610901] CRC32

    CUE sheet

    TITLE "Dmitri Shostakovich: Symphony No. 5 | Zoltán Kodály: The Peacock Variations"PERFORMER "István Kertész"REM GENRE ClassicalREM DISCID AC10C30BREM COMMENT "ExactAudioCopy v1.0b3"FILE "01 - Symphony No. 5 in D minor, Op. 47 - I. Moderato.flac" WAVE TRACK 01 AUDIO TITLE "Symphony No. 5 in D minor, Op. 47: I. Moderato" PERFORMER "Orchestre de la Suisse Romande. István Kertész, conductor" REM DATE 1962 INDEX 01 00:00:00FILE "02 - Symphony No. 5 in D minor, Op. 47 - II. Allegretto.flac" WAVE TRACK 02 AUDIO TITLE "Symphony No. 5 in D minor, Op. 47: II. Allegretto" PERFORMER "Orchestre de la Suisse Romande. István Kertész, conductor" REM DATE 1962 INDEX 01 00:00:00FILE "03 - Symphony No. 5 in D minor, Op. 47 - III. Largo.flac" WAVE TRACK 03 AUDIO TITLE "Symphony No. 5 in D minor, Op. 47: III. Largo" PERFORMER "Orchestre de la Suisse Romande. István Kertész, conductor" REM DATE 1962 INDEX 01 00:00:00FILE "04 - Symphony No. 5 in D minor, Op. 47 - IV. Allegro non troppo.flac" WAVE TRACK 04 AUDIO TITLE "Symphony No. 5 in D minor, Op. 47: IV. Allegro non troppo" PERFORMER "Orchestre de la Suisse Romande. István Kertész, conductor" REM DATE 1962 INDEX 01 00:00:00 TRACK 05 AUDIO TITLE "«Fölszállott a páva» (The Peacock)" PERFORMER "London Symphony Chorus" REM DATE 1970 INDEX 00 08:50:15FILE "05 - ''Folszallott a pava'' (The Peacock).flac" WAVE INDEX 01 00:00:00FILE "06 - ''Folszallott a pava'' (The Peacock), Variations on a Hungarian Folksong - Tema.flac" WAVE TRACK 06 AUDIO TITLE "«Fölszállott a páva» (The Peacock), Variations on a Hungarian Folksong: Tema" PERFORMER "London Symphony Orchestra. István Kertész, conductor" REM DATE 1970 INDEX 01 00:00:00FILE "07 - ''Folszallott a pava'' (The Peacock), Variations on a Hungarian Folksong - Variazioni I-VI.flac" WAVE TRACK 07 AUDIO TITLE "«Fölszállott a páva» (The Peacock), Variations on a Hungarian Folksong: Variazioni I-VI" PERFORMER "London Symphony Orchestra. István Kertész, conductor" REM DATE 1970 INDEX 01 00:00:00FILE "08 - ''Folszallott a pava'' (The Peacock), Variations on a Hungarian Folksong - Variazioni VII-X.flac" WAVE TRACK 08 AUDIO TITLE "«Fölszállott a páva» (The Peacock), Variations on a Hungarian Folksong: Variazioni VII-X" PERFORMER "London Symphony Orchestra. István Kertész, conductor" REM DATE 1970 INDEX 01 00:00:00FILE "09 - ''Folszallott a pava'' (The Peacock), Variations on a Hungarian Folksong - Variazioni XI-XII.flac" WAVE TRACK 09 AUDIO TITLE "«Fölszállott a páva» (The Peacock), Variations on a Hungarian Folksong: Variazioni XI-XII" PERFORMER "London Symphony Orchestra. István Kertész, conductor" REM DATE 1970 INDEX 01 00:00:00FILE "10 - ''Folszallott a pava'' (The Peacock), Variations on a Hungarian Folksong - Variazioni XIII-XVI.flac" WAVE TRACK 10 AUDIO TITLE "«Fölszállott a páva» (The Peacock), Variations on a Hungarian Folksong: Variazioni XIII-XVI" PERFORMER "London Symphony Orchestra. István Kertész, conductor" REM DATE 1970 INDEX 01 00:00:00FILE "11 - ''Folszallott a pava'' (The Peacock), Variations on a Hungarian Folksong - Finale.flac" WAVE TRACK 11 AUDIO TITLE "«Fölszállott a páva» (The Peacock), Variations on a Hungarian Folksong: Finale" PERFORMER "London Symphony Orchestra. István Kertész, conductor" REM DATE 1970 INDEX 01 00:00:00



  • Показать сообщения:    

    Текущее время: 08-Дек 01:20

    Часовой пояс: UTC + 3


    Вы не можете начинать темы
    Вы не можете отвечать на сообщения
    Вы не можете редактировать свои сообщения
    Вы не можете удалять свои сообщения
    Вы не можете голосовать в опросах
    Вы не можете прикреплять файлы к сообщениям
    Вы не можете скачивать файлы