(Classical) [EP] [24/96] Edvard Grieg / Эдвард Григ - Danza Norvegese №2, op. 35/Норвежские танцы, Symphonic Dance No. 2, Op. 64/Симфонические танцы (ГСО СССР, дир. Н. Аносов, СО Ленрадио, дир. К. Элиасберг) - 1977, FLAC (image+.cue)


Статистика раздачи [Обновить пиров]
Размер:  451 MB   |    Зарегистрирован:  11 месяцев 17 дней   |    Скачан:  0 раз

Полного источника не было: Никогда

Личеров:  2  [  0 KB/s  ]   Подробная статистика пиров
 
   
 
 
 

[Цитировать]

Эдвард Григ
Норвежские танцы №2, op. 35, Симфонические танцы No. 2, Op. 64
Жанр: Classical
Носитель: EP
Год выпуска: 1977
Лейбл: Мелодия (33Д 029885-86)
Страна-производитель: USSR
Аудио кодек: FLAC
Тип рипа: image+.cue
Формат записи: 24/192 dual mono
Формат раздачи: 24/96 mono
Продолжительность: 00:51:01
Тэги в .cue: прописаны
Источник оцифровки: автором раздачи
Код класса состояния винила: VG
Устройство воспроизведения: Электроника ЭП 017С
Головка звукоснимателя: ГЗМ – 028 (Корвет)
Предварительный усилитель: AMX - 100 (LTO®)
АЦП: Juli@
Программа-оцифровщик: Adobe Audition CS6 5.0.2.
Обработка: удаление артефактов

Трэклист:

Edvard Grieg - Danza Norvegese №2, op. 35
01. Allegro marcato
02. Allegro fanquillo e grazioso
03. Allegro moderato alla marcia
04. Allegro molto
Государственный симфонический оркестр СССР. Дирижёр Николай Аносов.
Edvard Grieg - Symphonic Dance No. 2, Op. 64
05. Allegro moderato e marcato
06. Allegro grazioso
07. Allegro giocoso
08. Andante. Allegro molto e resoluto
Симфонический оркестр Ленинградского радио. Дирижёр Карл Элиасберг.

Конверт, наклейки:


.cue txt:">

Уровень записи, спектр, АЧХ: .cue txt:


REM GENRE ClassicalREM DATE 1977REM COMENT LP, Vinyl, Album, Мелодия (33Д 029885-86), USSRPERFORMER Various ArtistsTITLE Danza Norvegese №2, op. 35, Symphonic Dance No. 2, Op. 64FILE "01. Side 1 - Danza Norvegese №2, op. 35.flac" WAVE TRACK 01 AUDIO TITLE "01. Allegro marcato" PERFORMER Государственный симфонический оркестр СССР. Дирижёр Н. Аносов INDEX 01 00:00:00 TRACK 02 AUDIO TITLE "02. Allegro franquillo e grazioso" PERFORMER Государственный симфонический оркестр СССР. Дирижёр Н. Аносов INDEX 01 06:56:02 TRACK 03 AUDIO TITLE "03. Allegro moderato alla marcia" PERFORMER Государственный симфонический оркестр СССР. Дирижёр Н. Аносов INDEX 01 09:31:11 TRACK 04 AUDIO TITLE "04. Allegro molto" PERFORMER Государственный симфонический оркестр СССР. Дирижёр Н. Аносов INDEX 01 13:07:53 TRACK 05 AUDIO TITLE "05. Allegro moderato e marcato" PERFORMER Симфонический оркестр Ленинградского радио. Дирижёр К. Элиасберг INDEX 01 19:38:68FILE "02. Side 2 - Symphonic Dance №2, op. 64.flac" WAVE TRACK 06 AUDIO TITLE "06. Allegro grazioso" PERFORMER Симфонический оркестр Ленинградского радио. Дирижёр К. Элиасберг INDEX 01 00:00:00 TRACK 07 AUDIO TITLE "07. Allegro giocoso" PERFORMER Симфонический оркестр Ленинградского радио. Дирижёр К. Элиасберг INDEX 01 06:13:70 TRACK 08 AUDIO TITLE "08. Andante. Allegro molto e resoluto" PERFORMER Симфонический оркестр Ленинградского радио. Дирижёр К. Элиасберг INDEX 01 12:44:49
[teatrix.ru].t12270.torrent 
Торрент: Зарегистрирован [ 2015-12-18 03:25 ] · C5BB225724A85B6028CED74B67D8256CCA3C8DA7

Скачать .torrent

Скачать

19 KB

Статус: проверено
Скачан: 0 раз
Размер: 451 MB
terms.php



Быстрый ответ

Имя:

      
Для отправки сообщений необходимо включить JavaScript
Показать сообщения:    

Текущее время: 04-Дек 13:13

Часовой пояс: UTC + 3


Вы можете начинать темы
Вы можете отвечать на сообщения
Вы не можете редактировать свои сообщения
Вы не можете удалять свои сообщения
Вы не можете голосовать в опросах
Вы не можете прикреплять файлы к сообщениям
Вы можете скачивать файлы