(Score) История дельфина / Dolphin Tale (by Mark Isham) - 2011, FLAC (tracks+.cue), lossless


Статистика раздачи [Обновить пиров]
Размер:  240 MB   |    Зарегистрирован:  11 месяцев 16 дней   |    Скачан:  0 раз

Полного источника не было: 12 дней

Личеров:  2  [  0 KB/s  ]   Подробная статистика пиров
 
   
 
 
 

[Цитировать]

История дельфина / Dolphin Tale-Жанр: Score
Композитор: Mark Isham
Год выпуска диска: 2001
Производитель диска: USA
Издатель (лейбл): Varèse Sarabande
Номер по каталогу: 302 067 120 2-Аудиокодек: FLAC (*.flac)
Тип рипа: tracks+.cue
Битрейт аудио: lossless
Продолжительность: 00:52:11
Источник: what.cd / mDt
Наличие сканов в содержимом раздачи: да, 600 dpi

Треклист

1. Dolphin Dance (03:00)
2. Gift From Kyle (02:05)
3. Finding Winter (03:46)
4. Aquarium (01:38)
5. Rufus (00:57)
6. I'm Hazel (01:36)
7. Winter Swims (02:28)
8. Never Calls (01:19)
9. News About Kyle (01:43)
10. Chumash Story (01:50)
11. Sawyer And Winter (04:28)
12. Putting On The Tail (02:33)
13. The Coming Storm (04:31)
14. The Little Girl (01:50)
15. Clay Changes His Mind (01:14)
16. Winter's A News Story (01:33)
17. Winter Tries Another Tail (04:07)
18. The New Tail (02:25)
19. Family Is Forever (00:56)
20. Swim (02:40)
21. Dolphin Tale End Credits (05:06)

Лог создания рипа

Exact Audio Copy V1.0 beta 3 from 29. August 2011
EAC extraction logfile from 30. March 2012, 23:15
Mark Isham / Dolphin Tale - Original Motion Picture Soundtrack
Used drive : TSSTcorpDVDWBD SH-B123L Adapter: 2 ID: 0
Read mode : SecureUtilize accurate stream : YesDefeat audio cache : YesMake use of C2 pointers : No
Read offset correction : 6Overread into Lead-In and Lead-Out : NoFill up missing offset samples with silence : YesDelete leading and trailing silent blocks : NoNull samples used in CRC calculations : YesUsed interface : Native Win32 interface for Win NT & 2000Gap handling : Appended to previous track
Used output format : User Defined EncoderSelected bitrate : 128 kBit/sQuality : HighAdd ID3 tag : YesCommand line compressor : C:\Program Files (x86)\Exact Audio Copy\Flac\flac.exeAdditional command line options : -8 -V -T "ARTIST=%artist%" -T "TITLE=%title%" -T "ALBUM=%albumtitle%" -T "DATE=%year%"-T "TRACKNUMBER=%tracknr%" -T "GENRE=%genre%" -T "PERFORMER=%albuminterpret%" -T "COMPOSER=%composer%"%haslyrics%--tag-from-file=LYRICS="%lyricsfile%"%haslyrics% -T "ALBUMARTIST=%albumartist%" -T "DISCNUMBER=%cdnumber%"-T "TOTALDISCS=%totalcds%" -T "TOTALTRACKS=%numtracks%" -T "COMMENT=%comment%" %source% -o %dest%
TOC of the extracted CD
Track | Start | Length | Start sector | End sector --------------------------------------------------------- 1 | 0:03.67 | 3:01.06 | 292 | 13872 2 | 3:04.73 | 2:07.29 | 13873 | 23426 3 | 5:12.27 | 3:47.43 | 23427 | 40494 4 | 8:59.70 | 1:38.28 | 40495 | 47872 5 | 10:38.23 | 0:59.04 | 47873 | 52301 6 | 11:37.27 | 1:35.55 | 52302 | 59481 7 | 13:13.07 | 2:28.25 | 59482 | 70606 8 | 15:41.32 | 1:19.63 | 70607 | 76594 9 | 17:01.20 | 1:44.50 | 76595 | 84444 10 | 18:45.70 | 1:51.29 | 84445 | 92798 11 | 20:37.24 | 4:30.62 | 92799 | 113110 12 | 25:08.11 | 2:34.18 | 113111 | 124678 13 | 27:42.29 | 4:36.55 | 124679 | 145433 14 | 32:19.09 | 1:50.50 | 145434 | 153733 15 | 34:09.59 | 1:14.33 | 153734 | 159316 16 | 35:24.17 | 1:34.31 | 159317 | 166397 17 | 36:58.48 | 4:08.46 | 166398 | 185043 18 | 41:07.19 | 2:26.18 | 185044 | 196011 19 | 43:33.37 | 0:56.32 | 196012 | 200243 20 | 44:29.69 | 2:40.08 | 200244 | 212251 21 | 47:10.02 | 5:06.17 | 212252 | 235218
Track 1
Filename C:\Music\Mark Isham\Dolphin Tale Soundtrack FLAC\01 - Dolphin Dance.wav
Pre-gap length 0:00:05.89
Peak level 96.6 % Extraction speed 1.9 X Track quality 100.0 % Test CRC 99EDA7E3 Copy CRC 99EDA7E3 Track not present in AccurateRip database Copy OK
Track 2
Filename C:\Music\Mark Isham\Dolphin Tale Soundtrack FLAC\02 - Gift From Kyle.wav
Pre-gap length 0:00:01.13
Peak level 78.1 % Extraction speed 1.9 X Track quality 100.0 % Test CRC F82AC6C8 Copy CRC F82AC6C8 Track not present in AccurateRip database Copy OK
Track 3
Filename C:\Music\Mark Isham\Dolphin Tale Soundtrack FLAC\03 - Finding Winter.wav
Pre-gap length 0:00:02.37
Peak level 91.4 % Extraction speed 2.2 X Track quality 100.0 % Test CRC A7FE7E47 Copy CRC A7FE7E47 Track not present in AccurateRip database Copy OK
Track 4
Filename C:\Music\Mark Isham\Dolphin Tale Soundtrack FLAC\04 - Aquarium.wav
Pre-gap length 0:00:01.57
Peak level 96.6 % Extraction speed 2.0 X Track quality 100.0 % Test CRC 923E15A5 Copy CRC 923E15A5 Track not present in AccurateRip database Copy OK
Track 5
Filename C:\Music\Mark Isham\Dolphin Tale Soundtrack FLAC\05 - Rufus.wav
Peak level 96.6 % Extraction speed 1.7 X Track quality 100.0 % Test CRC 287EF505 Copy CRC 287EF505 Track not present in AccurateRip database Copy OK
Track 6
Filename C:\Music\Mark Isham\Dolphin Tale Soundtrack FLAC\06 - I'm Hazel.wav
Pre-gap length 0:00:01.88
Peak level 96.6 % Extraction speed 2.1 X Track quality 100.0 % Test CRC 95F16B17 Copy CRC 95F16B17 Track not present in AccurateRip database Copy OK
Track 7
Filename C:\Music\Mark Isham\Dolphin Tale Soundtrack FLAC\07 - Winter Swims.wav
Peak level 87.7 % Extraction speed 2.4 X Track quality 100.0 % Test CRC E7ABE413 Copy CRC E7ABE413 Track not present in AccurateRip database Copy OK
Track 8
Filename C:\Music\Mark Isham\Dolphin Tale Soundtrack FLAC\08 - Never Calls.wav
Peak level 58.2 % Extraction speed 2.1 X Track quality 100.0 % Test CRC 15833AE0 Copy CRC 15833AE0 Track not present in AccurateRip database Copy OK
Track 9
Filename C:\Music\Mark Isham\Dolphin Tale Soundtrack FLAC\09 - News About Kyle.wav
Pre-gap length 0:00:01.24
Peak level 55.8 % Extraction speed 2.3 X Track quality 100.0 % Test CRC 13848189 Copy CRC 13848189 Track not present in AccurateRip database Copy OK
Track 10
Filename C:\Music\Mark Isham\Dolphin Tale Soundtrack FLAC\10 - Chumash Story.wav
Pre-gap length 0:00:01.78
Peak level 44.1 % Extraction speed 2.5 X Track quality 100.0 % Test CRC ACA33C22 Copy CRC ACA33C22 Track not present in AccurateRip database Copy OK
Track 11
Filename C:\Music\Mark Isham\Dolphin Tale Soundtrack FLAC\11 - Sawyer And Winter.wav
Pre-gap length 0:00:01.25
Peak level 96.6 % Extraction speed 3.0 X Track quality 100.0 % Test CRC A9A3C6B7 Copy CRC A9A3C6B7 Track not present in AccurateRip database Copy OK
Track 12
Filename C:\Music\Mark Isham\Dolphin Tale Soundtrack FLAC\12 - Putting On The Tail.wav
Pre-gap length 0:00:03.14
Peak level 96.6 % Extraction speed 2.8 X Track quality 100.0 % Test CRC 2E00AC70 Copy CRC 2E00AC70 Track not present in AccurateRip database Copy OK
Track 13
Filename C:\Music\Mark Isham\Dolphin Tale Soundtrack FLAC\13 - The Coming Storm.wav
Pre-gap length 0:00:01.17
Peak level 96.6 % Extraction speed 3.3 X Track quality 100.0 % Test CRC 7CEC2ADF Copy CRC 7CEC2ADF Track not present in AccurateRip database Copy OK
Track 14
Filename C:\Music\Mark Isham\Dolphin Tale Soundtrack FLAC\14 - The Little Girl.wav
Pre-gap length 0:00:05.37
Peak level 58.3 % Extraction speed 2.9 X Track quality 100.0 % Test CRC D4572892 Copy CRC D4572892 Track not present in AccurateRip database Copy OK
Track 15
Filename C:\Music\Mark Isham\Dolphin Tale Soundtrack FLAC\15 - Clay Changes His Mind.wav
Pre-gap length 0:00:01.02
Peak level 66.5 % Extraction speed 2.6 X Track quality 100.0 % Test CRC F8F0B2D1 Copy CRC F8F0B2D1 Track not present in AccurateRip database Copy OK
Track 16
Filename C:\Music\Mark Isham\Dolphin Tale Soundtrack FLAC\16 - Winter's A News Story.wav
Peak level 96.6 % Extraction speed 2.8 X Track quality 100.0 % Test CRC A9626D2F Copy CRC A9626D2F Track not present in AccurateRip database Copy OK
Track 17
Filename C:\Music\Mark Isham\Dolphin Tale Soundtrack FLAC\17 - Winter Tries Another Tail.wav
Pre-gap length 0:00:01.86
Peak level 96.6 % Extraction speed 3.5 X Track quality 100.0 % Test CRC 7F55752E Copy CRC 7F55752E Track not present in AccurateRip database Copy OK
Track 18
Filename C:\Music\Mark Isham\Dolphin Tale Soundtrack FLAC\18 - The New Tail.wav
Pre-gap length 0:00:01.72
Peak level 96.6 % Extraction speed 3.3 X Track quality 100.0 % Test CRC 20B11997 Copy CRC 20B11997 Track not present in AccurateRip database Copy OK
Track 19
Filename C:\Music\Mark Isham\Dolphin Tale Soundtrack FLAC\19 - Family Is Forever.wav
Pre-gap length 0:00:01.38
Peak level 96.6 % Extraction speed 1.3 X Track quality 99.8 % Test CRC 3F48A8D5 Copy CRC 3F48A8D5 Track not present in AccurateRip database Copy OK
Track 20
Filename C:\Music\Mark Isham\Dolphin Tale Soundtrack FLAC\20 - Swim.wav
Peak level 96.6 % Extraction speed 3.5 X Track quality 100.0 % Test CRC 4D31E118 Copy CRC 4D31E118 Track not present in AccurateRip database Copy OK
Track 21
Filename C:\Music\Mark Isham\Dolphin Tale Soundtrack FLAC\21 - Dolphin Tale End Credits.wav
Pre-gap length 0:00:00.25
Peak level 96.6 % Extraction speed 3.9 X Track quality 100.0 % Test CRC C4238F5D Copy CRC C4238F5D Track not present in AccurateRip database Copy OK
None of the tracks are present in the AccurateRip database
No errors occurred
End of status report
==== Log checksum 05EE457C7203A5FFA4B71BA1B19DB9D0080A63CDDF2A78632CD41D350C6CC3F0 ====

Содержание индексной карты (.CUE)

REM GENRE SoundtrackREM DATE 2011REM DISCID 100C3D15REM COMMENT "ExactAudioCopy v1.0b3"CATALOG 0030206712025PERFORMER "Mark Isham"TITLE "Dolphin Tale - Original Motion Picture Soundtrack"FILE "01 - Dolphin Dance.wav" WAVE TRACK 01 AUDIO TITLE "Dolphin Dance" PERFORMER "Mark Isham" ISRC US3M51112001 PREGAP 00:03:67 INDEX 01 00:00:00 TRACK 02 AUDIO TITLE "Gift From Kyle" PERFORMER "Mark Isham" ISRC US3M51112002 INDEX 00 02:59:71FILE "02 - Gift From Kyle.wav" WAVE INDEX 01 00:00:00 TRACK 03 AUDIO TITLE "Finding Winter" PERFORMER "Mark Isham" ISRC US3M51112003 INDEX 00 02:05:01FILE "03 - Finding Winter.wav" WAVE INDEX 01 00:00:00 TRACK 04 AUDIO TITLE "Aquarium" PERFORMER "Mark Isham" ISRC US3M51112004 INDEX 00 03:46:00FILE "04 - Aquarium.wav" WAVE INDEX 01 00:00:00FILE "05 - Rufus.wav" WAVE TRACK 05 AUDIO TITLE "Rufus" PERFORMER "Mark Isham" ISRC US3M51112005 INDEX 01 00:00:00 TRACK 06 AUDIO TITLE "I'm Hazel" PERFORMER "Mark Isham" ISRC US3M51112006 INDEX 00 00:57:13FILE "06 - I'm Hazel.wav" WAVE INDEX 01 00:00:00FILE "07 - Winter Swims.wav" WAVE TRACK 07 AUDIO TITLE "Winter Swims" PERFORMER "Mark Isham" ISRC US3M51112007 INDEX 01 00:00:00FILE "08 - Never Calls.wav" WAVE TRACK 08 AUDIO TITLE "Never Calls" PERFORMER "Mark Isham" ISRC US3M51112008 INDEX 01 00:00:00 TRACK 09 AUDIO TITLE "News About Kyle" PERFORMER "Mark Isham" ISRC US3M51112009 INDEX 00 01:18:45FILE "09 - News About Kyle.wav" WAVE INDEX 01 00:00:00 TRACK 10 AUDIO TITLE "Chumash Story" PERFORMER "Mark Isham" ISRC US3M51112010 INDEX 00 01:42:66FILE "10 - Chumash Story.wav" WAVE INDEX 01 00:00:00 TRACK 11 AUDIO TITLE "Sawyer And Winter" PERFORMER "Mark Isham" ISRC US3M51112011 INDEX 00 01:50:10FILE "11 - Sawyer And Winter.wav" WAVE INDEX 01 00:00:00 TRACK 12 AUDIO TITLE "Putting On The Tail" PERFORMER "Mark Isham" ISRC US3M51112012 INDEX 00 04:27:51FILE "12 - Putting On The Tail.wav" WAVE INDEX 01 00:00:00 TRACK 13 AUDIO TITLE "The Coming Storm" PERFORMER "Mark Isham" ISRC US3M51112013 INDEX 00 02:33:05FILE "13 - The Coming Storm.wav" WAVE INDEX 01 00:00:00 TRACK 14 AUDIO TITLE "The Little Girl" PERFORMER "Mark Isham" ISRC US3M51112014 INDEX 00 04:31:27FILE "14 - The Little Girl.wav" WAVE INDEX 01 00:00:00 TRACK 15 AUDIO TITLE "Clay Changes His Mind" PERFORMER "Mark Isham" ISRC US3M51112015 INDEX 00 01:49:48FILE "15 - Clay Changes His Mind.wav" WAVE INDEX 01 00:00:00FILE "16 - Winter's A News Story.wav" WAVE TRACK 16 AUDIO TITLE "Winter's A News Story" PERFORMER "Mark Isham" ISRC US3M51112015 INDEX 01 00:00:00 TRACK 17 AUDIO TITLE "Winter Tries Another Tail" PERFORMER "Mark Isham" ISRC US3M51112017 INDEX 00 01:32:41FILE "17 - Winter Tries Another Tail.wav" WAVE INDEX 01 00:00:00 TRACK 18 AUDIO TITLE "The New Tail" PERFORMER "Mark Isham" ISRC US3M51112018 INDEX 00 04:06:67FILE "18 - The New Tail.wav" WAVE INDEX 01 00:00:00 TRACK 19 AUDIO TITLE "Family Is Forever" PERFORMER "Mark Isham" ISRC US3M51112019 INDEX 00 02:24:64FILE "19 - Family Is Forever.wav" WAVE INDEX 01 00:00:00FILE "20 - Swim.wav" WAVE TRACK 20 AUDIO TITLE "Swim" PERFORMER "Mark Isham" ISRC US3M51112020 INDEX 01 00:00:00 TRACK 21 AUDIO TITLE "Dolphin Tale End Credits" PERFORMER "Mark Isham" ISRC US3M51112021 INDEX 00 02:39:64FILE "21 - Dolphin Tale End Credits.wav" WAVE INDEX 01 00:00:00
[teatrix.ru].t12272.torrent 
Торрент: Зарегистрирован [ 2015-12-18 03:25 ] · B4ABD9A08464ADE068ADD3B76C24F6E656CE03BD

Скачать .torrent

Скачать

21 KB

Статус: проверено
Скачан: 0 раз
Размер: 240 MB
terms.php



Быстрый ответ

Имя:

      
Для отправки сообщений необходимо включить JavaScript
Показать сообщения:    

Текущее время: 03-Дек 14:40

Часовой пояс: UTC + 3


Вы можете начинать темы
Вы можете отвечать на сообщения
Вы не можете редактировать свои сообщения
Вы не можете удалять свои сообщения
Вы не можете голосовать в опросах
Вы не можете прикреплять файлы к сообщениям
Вы можете скачивать файлы