[TR24][OF] Игорь Стравинский / Igor Stravinsky: Works for Piano and Orchestra (Алексей Горлач / Alexej Gorlatch) - 2015 (Classical/Piano/Concerto)


Статистика раздачи [Обновить пиров]
Размер:  534 MB   |    Зарегистрирован:  1 год 1 месяц   |    Скачан:  0 раз

Полного источника не было: Никогда

Личеров:  2  [  0 KB/s  ]   Подробная статистика пиров
 
   
 
 
 

[Цитировать]

Alexej Gorlatch

Igor Stravinsky: Works for Piano and Orchestra-Жанр: Classical/Piano/Concerto
Год издания диска: 2015
Издатель (лейбл): Sony Classical
Номер по каталогу: 478 9216
Дата записи: 12-15.05.2014
Аудиокодек: FLAC
Тип рипа: tracks
Разрядность: 24/44,1
Формат: WAV (flac.ape.wv)
Количество каналов: 2.0
Битрейт аудио: lossless
Продолжительность: 01:05:47
Источник: WEB
Наличие сканов: Digital booklet-
-
Игорь Стравинский
Concerto for Piano and Wind Instruments
01 Largo - Allegro
02 Largo
03 Allegro
Capriccio for Piano and Orchestra
04 Presto
05 Andante rapsodico
06 Allegro cappricioso ma tempo giusto
Piano Sonata in F-Sharp Minor
07 Allegro
08 Vivo
09 Andante
10 Allegro

Исполнители:
Alexej Gorlatch, piano
Rundfunk-Sinfonieorchester Berlin
Alondra de la Parra, conductor-Об исполнителе:Алексей Горлач (укр. Олексій Горлач, нем. Alexej Gorlatch) - германо-украинский пианист. Родился 23 мая 1988 года в Киеве, с трёхлетнего возраста живёт в Германии. Начал заниматься музыкой в Пассау у Е. Г. Георгиева, затем учился в Берлине у Мартина Хьюза, в 2002—2007 годах - в Ганноверской Высшей школе музыки под руководством Карла-Хайнца Кеммерлинга. Лауреат ряда международных конкурсов. В частности, в 2006 году выиграл Международный конкурс пианистов в Хамамацу, в 2007 году был удостоен приза зрительских симпатий на Бетховенском конкурсе в Бонне, в ходе которого председатель жюри Павел Гилилов оценил как грандиозное исполнение Горлачем Сонаты № 31 Бетховена. В 2009 г. получил вторую премию на Международном конкурсе пианистов в Лидсе. В 2007 году дебютировал в Нью-Йорке, получив от газеты «Нью-Йорк Таймс» рецензию, озаглавленную «Зрелость не по годам». Гастролирует в США, Японии, Австрии; участвует в фестивалях (Рурский фортепианный фестиваль, Международный фестиваль Шопена в Душники-Здруй, фестиваль Harrogate в Великобритании, Уэксфордский оперный фестиваль, Люцернский фестиваль, «Музыкальный Олимп» в Санкт-Петербурге).-Об альбоме:Фортепианному концерту принадлежит особое место в наследии Стравинского – он открыл новую страницу в своей творческой и исполнительской биографии. Будучи первым сочинением, написанным в концертном жанре, он также явился первым опусом, в котором Стравинский предстал перед аудиторией и в качестве исполнителя сольной партии. Исключительно смелый, анти-романтический по характеру замысел концерта предполагал преимущественно «ударно» трактованное фортепиано и духовые. Столь необычный ансамбль представлялся композитору идеальным образцом взаимодействия тембров: согласно ремарке Стравинского, контрастирующая ударному соло группа духовых продлевала звучание фортепиано и создавала эффект человеческого дыхания. Апеллируя к высоким традициям эпохи барокко, композитор сочетает приемы Баха и Генделя с острой интерваликой, звучащей абсолютно «по-стравински», и приходит к совершенно оригинальной композиции, отличающейся жанрово-стилевой многозначностью.
В Каприччио для фортепиано с оркестром барочные идеи ансамблевого музицирования сочетаются с пианистическим пальцевым орнаментом в стиле Вебера и с джазированными оборотами.
Соната - одно из первых сочинений композитора, написанное под руководством Римского-Корсакова. Стравинский пояснял, что название «соната» он использует в старинном его значении: от слова sonare - звучать. По признанию автора, в период сочинения сонаты он стремился обогатить свою фантазию проигрыванием фортепианных сонат Бетховена.
-

Dynamic Range Meter

[pre]foobar2000 1.3.9 / Замер динамического диапазона (DR) 1.1.1
Дата отчёта: 2015-12-17 15:39:42
--------------------------------------------------------------------------------
Анализ: Alexej Gorlatch, Rundfunk-Sinfonieorchester Berlin & Alondra de la Parra / Stravinsky: Works for Piano and Orchestra (1-6)
Alexej Gorlatch / Stravinsky: Works for Piano and Orchestra (7-10)
--------------------------------------------------------------------------------
DR Пики RMS Продолжительность трека
--------------------------------------------------------------------------------
DR15 -0.33 дБ -19.42 дБ 7:30 01-Concerto for Piano and Wind Instruments: I. Largo - Allegro
DR16 -0.33 дБ -23.79 дБ 7:36 02-Concerto for Piano and Wind Instruments: II. Largo
DR17 -0.33 дБ -21.66 дБ 5:00 03-Concerto for Piano and Wind Instruments: III. Allegro
DR19 -0.32 дБ -27.39 дБ 6:57 04-Capriccio for Piano and Orchestra: I. Presto
DR16 -9.95 дБ -31.48 дБ 5:13 05-Capriccio for Piano and Orchestra: II. Andante rapsodico
DR19 -1.70 дБ -25.62 дБ 5:14 06-Capriccio for Piano and Orchestra: III. Allegro cappricioso ma tempo giusto
DR13 -2.52 дБ -21.47 дБ 10:32 07-Piano Sonata in F-Sharp Minor: I. Allegro
DR14 -6.09 дБ -26.11 дБ 4:46 08-Piano Sonata in F-Sharp Minor: II. Vivo
DR14 -5.61 дБ -26.57 дБ 6:43 09-Piano Sonata in F-Sharp Minor: III. Andante
DR14 -3.34 дБ -22.04 дБ 6:19 10-Piano Sonata in F-Sharp Minor: IV. Allegro
--------------------------------------------------------------------------------
Количество треков: 10
Реальные значения DR: DR16
Частота: 44100 Гц
Каналов: 2
Разрядность: 24
Битрейт: 1117 кбит/с
Кодек: FLAC
================================================================================

Скриншот спектра частот

Track 8
[teatrix.ru].t12273.torrent 
Торрент: Зарегистрирован [ 2015-12-18 07:30 ] · 62690C209872809CA16F8875D0DDC8EA17512A14

Скачать .torrent

Скачать

12 KB

Статус: проверено
Скачан: 0 раз
Размер: 534 MB
terms.php



Быстрый ответ

Имя:

      
Для отправки сообщений необходимо включить JavaScript
Показать сообщения:    

Текущее время: 24-Янв 00:00

Часовой пояс: UTC + 3


Вы можете начинать темы
Вы можете отвечать на сообщения
Вы не можете редактировать свои сообщения
Вы не можете удалять свои сообщения
Вы не можете голосовать в опросах
Вы не можете прикреплять файлы к сообщениям
Вы можете скачивать файлы