(Score) Сара / Sarah // Беспорядок / Desordre (by Gabriel Yared) - 2015 (1983, 1986), FLAC (tracks+.cue), lossless


Статистика раздачи [Обновить пиров]
Размер:  276 MB   |    Зарегистрирован:  11 месяцев 14 дней   |    Скачан:  0 раз

Полного источника не было: Никогда

Личеров:  2  [  0 KB/s  ]   Подробная статистика пиров
 
   
 
 
 

[Цитировать]

Сара / Sarah // Беспорядок / Désordre-Жанр: Score
Композитор: Gabriel Yared
Год выпуска диска: 2015
Год выпуска фильма: 1983 (Sarah), 1986 (Désordre)
Производитель диска: France
Издатель (лейбл): Music Box Records
Номер по каталогу: MBR-073-Аудиокодек: FLAC (*.flac)
Тип рипа: tracks+.cue
Битрейт аудио: lossless
Продолжительность: 00:52:01
Источник: собственный рип
Наличие сканов в содержимом раздачи: да, 600 dpi-Ссылки - Sarah: Кинопоиск | IMDB | Wikipedia | SoundtrackCollector
Ссылки - Désordre: Кинопоиск | IMDB | Wikipedia | SoundtrackCollector
MP3: (Score) Сара / Sarah // Беспорядок / Desordre (by Gabriel Yared) - 2015 (1983, 1986), MP3 (tracks) 320 kbps

Треклист

Sarah:
01. L'anniversaire [0:01:53.53]
02. Sarah - Générique début [0:01:19.61]
03. À la recherche de Duparc [0:01:13.73]
04. Le retour de Sarah [0:02:54.50]
05. Promenade dans l'usine [0:00:44.34]
06. Marie dans la nuit [0:02:12.48]
07. Quintette pour piano en mi bémol majeur, op. 44 (Robert Schumann) [0:02:05.70]
08. Rencontre de la petite fille [0:00:38.62]
09. Le cadavre sur la plage [0:02:12.32]
10. L'incendie du décor - La répétition dans le loft [0:01:53.12]
11. Les yeux de Sarah [0:02:21.66]
12. Arnold Samson - L'amour de Marie et Arnold [0:03:56.61]
13. Vers la maison de Marie [0:00:43.42]
14. L'azur de Sarah [0:01:27.37]
15. Senechal dans les échafaudages [0:01:57.71]
16. Le tournage de fin [0:02:38.05]
17. Sarah - Générique de fin [0:03:57.11]
Désordre:
18. Désordre - Générique début [0:01:37.70]
19. Au bord de l'autoroute [0:01:23.12]
20. J'aime Yvan, seulement Yvan, lui seul [0:01:14.12]
21. Anne et Henri au Gibus [0:01:07.52]
22. L'accident [0:02:05.12]
23. Le balcon chez Paul - Les quais [0:01:57.35]
24. Trop tard pour changer d'avis [0:01:31.07]
25. Je ne veux plus vous voir [0:00:56.46]
26. Brighton - L'aube à Newhaven [0:01:26.64]
27. Anne arrive à New York [0:00:59.61]
28. Desordre - Générique de fin [0:03:28.04]

Лог создания рипа

Exact Audio Copy V1.1 from 23. June 2015
EAC extraction logfile from 28. September 2015, 23:25
Gabriel Yared / Sarah / Désordre
Used drive : PLEXTOR CD-R PX-230A Adapter: 1 ID: 2
Read mode : SecureUtilize accurate stream : YesDefeat audio cache : YesMake use of C2 pointers : No
Read offset correction : 738Overread into Lead-In and Lead-Out : NoFill up missing offset samples with silence : YesDelete leading and trailing silent blocks : NoNull samples used in CRC calculations : YesUsed interface : Native Win32 interface for Win NT & 2000Gap handling : Appended to previous track
Used output format : User Defined EncoderSelected bitrate : 1024 kBit/sQuality : HighAdd ID3 tag : NoCommand line compressor : C:\Program Files (x86)\Exact Audio Copy\FLAC\FLAC.EXEAdditional command line options : -6 -V -T "ARTIST=%artist%" -T "TITLE=%title%" -T "ALBUM=%albumtitle%" -T "DATE=%year%"-T "TRACKNUMBER=%tracknr%" -T "GENRE=%genre%" -T "COMMENT=%comment%" -T "ALBUMARTIST=%albuminterpret%" -T "COMPOSER=%composer%"-T "DISCNUMBER=%cdnumber%" -T "TOTALDISCS=%totalcds%" -T "TOTALTRACKS=%numtracks%" %source% -o %dest%
TOC of the extracted CD
Track | Start | Length | Start sector | End sector --------------------------------------------------------- 1 | 0:00.00 | 1:53.53 | 0 | 8527 2 | 1:53.53 | 1:19.61 | 8528 | 14513 3 | 3:13.39 | 1:13.73 | 14514 | 20061 4 | 4:27.37 | 2:54.50 | 20062 | 33161 5 | 7:22.12 | 0:44.34 | 33162 | 36495 6 | 8:06.46 | 2:12.48 | 36496 | 46443 7 | 10:19.19 | 2:05.70 | 46444 | 55888 8 | 12:25.14 | 0:38.62 | 55889 | 58800 9 | 13:04.01 | 2:12.32 | 58801 | 68732 10 | 15:16.33 | 1:53.12 | 68733 | 77219 11 | 17:09.45 | 2:21.66 | 77220 | 87860 12 | 19:31.36 | 3:56.61 | 87861 | 105621 13 | 23:28.22 | 0:43.42 | 105622 | 108888 14 | 24:11.64 | 1:27.37 | 108889 | 115450 15 | 25:39.26 | 1:57.71 | 115451 | 124296 16 | 27:37.22 | 2:38.05 | 124297 | 136151 17 | 30:15.27 | 3:57.11 | 136152 | 153937 18 | 34:12.38 | 1:37.70 | 153938 | 161282 19 | 35:50.33 | 1:23.12 | 161283 | 167519 20 | 37:13.45 | 1:14.12 | 167520 | 173081 21 | 38:27.57 | 1:07.52 | 173082 | 178158 22 | 39:35.34 | 2:05.12 | 178159 | 187545 23 | 41:40.46 | 1:57.35 | 187546 | 196355 24 | 43:38.06 | 1:31.07 | 196356 | 203187 25 | 45:09.13 | 0:56.46 | 203188 | 207433 26 | 46:05.59 | 1:26.64 | 207434 | 213947 27 | 47:32.48 | 0:59.61 | 213948 | 218433 28 | 48:32.34 | 3:28.04 | 218434 | 234037
Track 1
Filename C:\Music - Gabriel Yared - L'anniversaire.wav
Pre-gap length 0:00:02.00
Peak level 67.4 % Extraction speed 4.4 X Track quality 100.0 % Test CRC CF6E12CD Copy CRC CF6E12CD Track not present in AccurateRip database Copy OK
Track 2
Filename C:\Music - Gabriel Yared - Sarah - Générique début.wav
Pre-gap length 0:00:02.00
Peak level 50.2 % Extraction speed 4.2 X Track quality 100.0 % Test CRC BFBCAA6E Copy CRC BFBCAA6E Track not present in AccurateRip database Copy OK
Track 3
Filename C:\Music - Gabriel Yared - À la recherche de Duparc.wav
Pre-gap length 0:00:02.00
Peak level 77.4 % Extraction speed 4.1 X Track quality 100.0 % Test CRC 90ABC1A1 Copy CRC 90ABC1A1 Track not present in AccurateRip database Copy OK
Track 4
Filename C:\Music - Gabriel Yared - Le retour de Sarah.wav
Pre-gap length 0:00:02.00
Peak level 52.4 % Extraction speed 5.1 X Track quality 100.0 % Test CRC 2A3400E4 Copy CRC 2A3400E4 Track not present in AccurateRip database Copy OK
Track 5
Filename C:\Music - Gabriel Yared - Promenade dans l'usine.wav
Pre-gap length 0:00:02.00
Peak level 41.8 % Extraction speed 2.3 X Track quality 99.7 % Test CRC 8852532F Copy CRC 8852532F Track not present in AccurateRip database Copy OK
Track 6
Filename C:\Music - Gabriel Yared - Marie dans la nuit.wav
Pre-gap length 0:00:02.00
Peak level 43.3 % Extraction speed 4.8 X Track quality 100.0 % Test CRC F9B77C84 Copy CRC F9B77C84 Track not present in AccurateRip database Copy OK
Track 7
Filename C:\Music - Gabriel Yared - Quintette pour piano en mi bémol majeur, op. 44 (Robert Schumann).wav
Pre-gap length 0:00:02.00
Peak level 54.8 % Extraction speed 4.8 X Track quality 100.0 % Test CRC B9C745CF Copy CRC B9C745CF Track not present in AccurateRip database Copy OK
Track 8
Filename C:\Music - Gabriel Yared - Rencontre de la petite fille.wav
Pre-gap length 0:00:02.00
Peak level 15.3 % Extraction speed 2.1 X Track quality 99.7 % Test CRC B40C5D2F Copy CRC B40C5D2F Track not present in AccurateRip database Copy OK
Track 9
Filename C:\Music - Gabriel Yared - Le cadavre sur la plage.wav
Pre-gap length 0:00:02.00
Peak level 59.4 % Extraction speed 4.8 X Track quality 100.0 % Test CRC C6C37DFA Copy CRC C6C37DFA Track not present in AccurateRip database Copy OK
Track 10
Filename C:\Music - Gabriel Yared - L'incendie du décor - La répétition dans le loft.wav
Pre-gap length 0:00:02.00
Peak level 83.5 % Extraction speed 4.6 X Track quality 100.0 % Test CRC 6822BD28 Copy CRC 6822BD28 Track not present in AccurateRip database Copy OK
Track 11
Filename C:\Music - Gabriel Yared - Les yeux de Sarah.wav
Pre-gap length 0:00:02.00
Peak level 40.7 % Extraction speed 4.3 X Track quality 100.0 % Test CRC 9FB0EAED Copy CRC 9FB0EAED Track not present in AccurateRip database Copy OK
Track 12
Filename C:\Music - Gabriel Yared - Arnold Samson - L'amour de Marie et Arnold.wav
Pre-gap length 0:00:02.00
Peak level 61.5 % Extraction speed 3.6 X Track quality 100.0 % Test CRC 8E6F58C0 Copy CRC 8E6F58C0 Track not present in AccurateRip database Copy OK
Track 13
Filename C:\Music - Gabriel Yared - Vers la maison de Marie.wav
Pre-gap length 0:00:02.00
Peak level 58.9 % Extraction speed 3.3 X Track quality 100.0 % Test CRC 382182DC Copy CRC 382182DC Track not present in AccurateRip database Copy OK
Track 14
Filename C:\Music - Gabriel Yared - L'azur de Sarah.wav
Pre-gap length 0:00:02.00
Peak level 50.4 % Extraction speed 4.3 X Track quality 100.0 % Test CRC F2DEB7C2 Copy CRC F2DEB7C2 Track not present in AccurateRip database Copy OK
Track 15
Filename C:\Music - Gabriel Yared - Senechal dans les échafaudages.wav
Pre-gap length 0:00:02.00
Peak level 26.4 % Extraction speed 4.7 X Track quality 100.0 % Test CRC 689B1D2B Copy CRC 689B1D2B Track not present in AccurateRip database Copy OK
Track 16
Filename C:\Music - Gabriel Yared - Le tournage de fin.wav
Pre-gap length 0:00:02.00
Peak level 42.3 % Extraction speed 4.9 X Track quality 100.0 % Test CRC 076300A6 Copy CRC 076300A6 Track not present in AccurateRip database Copy OK
Track 17
Filename C:\Music - Gabriel Yared - Sarah - Générique de fin.wav
Pre-gap length 0:00:02.00
Peak level 68.4 % Extraction speed 5.3 X Track quality 100.0 % Test CRC C39D5DF8 Copy CRC C39D5DF8 Track not present in AccurateRip database Copy OK
Track 18
Filename C:\Music - Gabriel Yared - Désordre - Générique début.wav
Pre-gap length 0:00:04.00
Peak level 47.3 % Extraction speed 3.5 X Track quality 99.8 % Test CRC C79883D9 Copy CRC C79883D9 Track not present in AccurateRip database Copy OK
Track 19
Filename C:\Music - Gabriel Yared - Au bord de l'autoroute.wav
Pre-gap length 0:00:02.00
Peak level 35.9 % Extraction speed 4.2 X Track quality 100.0 % Test CRC A3271081 Copy CRC A3271081 Track not present in AccurateRip database Copy OK
Track 20
Filename C:\Music - Gabriel Yared - J'aime Yvan, seulement Yvan, lui seul.wav
Pre-gap length 0:00:02.00
Peak level 29.4 % Extraction speed 4.0 X Track quality 100.0 % Test CRC 5543C3EA Copy CRC 5543C3EA Track not present in AccurateRip database Copy OK
Track 21
Filename C:\Music - Gabriel Yared - Anne et Henri au Gibus.wav
Pre-gap length 0:00:02.00
Peak level 31.6 % Extraction speed 3.0 X Track quality 99.8 % Test CRC 58694FAC Copy CRC 58694FAC Track not present in AccurateRip database Copy OK
Track 22
Filename C:\Music - Gabriel Yared - L'accident.wav
Pre-gap length 0:00:02.00
Peak level 26.0 % Extraction speed 3.8 X Track quality 99.9 % Test CRC 6B656E88 Copy CRC 6B656E88 Track not present in AccurateRip database Copy OK
Track 23
Filename C:\Music - Gabriel Yared - Le balcon chez Paul - Les quais.wav
Pre-gap length 0:00:02.00
Peak level 62.8 % Extraction speed 4.7 X Track quality 100.0 % Test CRC 9F2C005B Copy CRC 9F2C005B Track not present in AccurateRip database Copy OK
Track 24
Filename C:\Music - Gabriel Yared - Trop tard pour changer d'avis.wav
Pre-gap length 0:00:02.00
Peak level 30.1 % Extraction speed 4.3 X Track quality 100.0 % Test CRC 374A6DE9 Copy CRC 374A6DE9 Track not present in AccurateRip database Copy OK
Track 25
Filename C:\Music - Gabriel Yared - Je ne veux plus vous voir.wav
Pre-gap length 0:00:02.00
Peak level 33.7 % Extraction speed 3.7 X Track quality 100.0 % Test CRC 3FFB345E Copy CRC 3FFB345E Track not present in AccurateRip database Copy OK
Track 26
Filename C:\Music - Gabriel Yared - Brighton - L'aube à Newhaven.wav
Pre-gap length 0:00:02.00
Peak level 50.0 % Extraction speed 4.3 X Track quality 100.0 % Test CRC 270431CC Copy CRC 270431CC Track not present in AccurateRip database Copy OK
Track 27
Filename C:\Music - Gabriel Yared - Anne arrive à New York.wav
Pre-gap length 0:00:02.00
Peak level 22.2 % Extraction speed 3.7 X Track quality 100.0 % Test CRC 37D421EE Copy CRC 37D421EE Track not present in AccurateRip database Copy OK
Track 28
Filename C:\Music - Gabriel Yared - Desordre - Générique de fin.wav
Pre-gap length 0:00:02.00
Peak level 57.7 % Extraction speed 5.1 X Track quality 100.0 % Test CRC 63F34D20 Copy CRC 63F34D20 Track not present in AccurateRip database Copy OK
None of the tracks are present in the AccurateRip database
No errors occurred
End of status report
---- CUETools DB Plugin V2.1.6
[CTDB TOCID: XY05jKKt524j4noFGGN5yJOxirA-] foundSubmit result: XY05jKKt524j4noFGGN5yJOxirA- has been confirmedTrack | CTDB Status 1 | (1/1) Accurately ripped 2 | (1/1) Accurately ripped 3 | (1/1) Accurately ripped 4 | (1/1) Accurately ripped 5 | (1/1) Accurately ripped 6 | (1/1) Accurately ripped 7 | (1/1) Accurately ripped 8 | (1/1) Accurately ripped 9 | (1/1) Accurately ripped 10 | (1/1) Accurately ripped 11 | (1/1) Accurately ripped 12 | (1/1) Accurately ripped 13 | (1/1) Accurately ripped 14 | (1/1) Accurately ripped 15 | (1/1) Accurately ripped 16 | (1/1) Accurately ripped 17 | (1/1) Accurately ripped 18 | (1/1) Accurately ripped 19 | (1/1) Accurately ripped 20 | (1/1) Accurately ripped 21 | (1/1) Accurately ripped 22 | (1/1) Accurately ripped 23 | (1/1) Accurately ripped 24 | (1/1) Accurately ripped 25 | (1/1) Accurately ripped 26 | (1/1) Accurately ripped 27 | (1/1) Accurately ripped 28 | (1/1) Accurately ripped
==== Log checksum 44D5AE7E24746736AE3C7A4910625400F82264AF36CB338682101E341E39D4BA ====

Содержание индексной карты (.CUE)

REM GENRE SoundtrackREM DATE 2015REM DISCID 7A0C301CREM COMMENT "ExactAudioCopy v1.1"PERFORMER "Gabriel Yared"TITLE "Sarah / Desordre"FILE "01 - Gabriel Yared - L'anniversaire.wav" WAVE TRACK 01 AUDIO TITLE "L'anniversaire" PERFORMER "Gabriel Yared" INDEX 01 00:00:00 TRACK 02 AUDIO TITLE "Sarah - Generique debut" PERFORMER "Gabriel Yared" INDEX 00 01:51:53FILE "02 - Gabriel Yared - Sarah - Generique debut.wav" WAVE INDEX 01 00:00:00 TRACK 03 AUDIO TITLE "A la recherche de Duparc" PERFORMER "Gabriel Yared" INDEX 00 01:17:61FILE "03 - Gabriel Yared - A la recherche de Duparc.wav" WAVE INDEX 01 00:00:00 TRACK 04 AUDIO TITLE "Le retour de Sarah" PERFORMER "Gabriel Yared" INDEX 00 01:11:73FILE "04 - Gabriel Yared - Le retour de Sarah.wav" WAVE INDEX 01 00:00:00 TRACK 05 AUDIO TITLE "Promenade dans l'usine" PERFORMER "Gabriel Yared" INDEX 00 02:52:50FILE "05 - Gabriel Yared - Promenade dans l'usine.wav" WAVE INDEX 01 00:00:00 TRACK 06 AUDIO TITLE "Marie dans la nuit" PERFORMER "Gabriel Yared" INDEX 00 00:42:34FILE "06 - Gabriel Yared - Marie dans la nuit.wav" WAVE INDEX 01 00:00:00 TRACK 07 AUDIO TITLE "Quintette pour piano en mi bemol majeur, op. 44 (Robert Schumann)" PERFORMER "Gabriel Yared" INDEX 00 02:10:48FILE "07 - Gabriel Yared - Quintette pour piano en mi bemol majeur, op. 44 (Robert Schumann).wav" WAVE INDEX 01 00:00:00 TRACK 08 AUDIO TITLE "Rencontre de la petite fille" PERFORMER "Gabriel Yared" INDEX 00 02:03:70FILE "08 - Gabriel Yared - Rencontre de la petite fille.wav" WAVE INDEX 01 00:00:00 TRACK 09 AUDIO TITLE "Le cadavre sur la plage" PERFORMER "Gabriel Yared" INDEX 00 00:36:62FILE "09 - Gabriel Yared - Le cadavre sur la plage.wav" WAVE INDEX 01 00:00:00 TRACK 10 AUDIO TITLE "L'incendie du decor - La repetition dans le loft" PERFORMER "Gabriel Yared" INDEX 00 02:10:32FILE "10 - Gabriel Yared - L'incendie du decor - La repetition dans le loft.wav" WAVE INDEX 01 00:00:00 TRACK 11 AUDIO TITLE "Les yeux de Sarah" PERFORMER "Gabriel Yared" INDEX 00 01:51:12FILE "11 - Gabriel Yared - Les yeux de Sarah.wav" WAVE INDEX 01 00:00:00 TRACK 12 AUDIO TITLE "Arnold Samson - L'amour de Marie et Arnold" PERFORMER "Gabriel Yared" INDEX 00 02:19:66FILE "12 - Gabriel Yared - Arnold Samson - L'amour de Marie et Arnold.wav" WAVE INDEX 01 00:00:00 TRACK 13 AUDIO TITLE "Vers la maison de Marie" PERFORMER "Gabriel Yared" INDEX 00 03:54:61FILE "13 - Gabriel Yared - Vers la maison de Marie.wav" WAVE INDEX 01 00:00:00 TRACK 14 AUDIO TITLE "L'azur de Sarah" PERFORMER "Gabriel Yared" INDEX 00 00:41:42FILE "14 - Gabriel Yared - L'azur de Sarah.wav" WAVE INDEX 01 00:00:00 TRACK 15 AUDIO TITLE "Senechal dans les echafaudages" PERFORMER "Gabriel Yared" INDEX 00 01:25:37FILE "15 - Gabriel Yared - Senechal dans les echafaudages.wav" WAVE INDEX 01 00:00:00 TRACK 16 AUDIO TITLE "Le tournage de fin" PERFORMER "Gabriel Yared" INDEX 00 01:55:71FILE "16 - Gabriel Yared - Le tournage de fin.wav" WAVE INDEX 01 00:00:00 TRACK 17 AUDIO TITLE "Sarah - Generique de fin" PERFORMER "Gabriel Yared" INDEX 00 02:36:05FILE "17 - Gabriel Yared - Sarah - Generique de fin.wav" WAVE INDEX 01 00:00:00 TRACK 18 AUDIO TITLE "Desordre - Generique debut" PERFORMER "Gabriel Yared" INDEX 00 03:53:11FILE "18 - Gabriel Yared - Desordre - Generique debut.wav" WAVE INDEX 01 00:00:00 TRACK 19 AUDIO TITLE "Au bord de l'autoroute" PERFORMER "Gabriel Yared" INDEX 00 01:35:70FILE "19 - Gabriel Yared - Au bord de l'autoroute.wav" WAVE INDEX 01 00:00:00 TRACK 20 AUDIO TITLE "J'aime Yvan, seulement Yvan, lui seul" PERFORMER "Gabriel Yared" INDEX 00 01:21:12FILE "20 - Gabriel Yared - J'aime Yvan, seulement Yvan, lui seul.wav" WAVE INDEX 01 00:00:00 TRACK 21 AUDIO TITLE "Anne et Henri au Gibus" PERFORMER "Gabriel Yared" INDEX 00 01:12:12FILE "21 - Gabriel Yared - Anne et Henri au Gibus.wav" WAVE INDEX 01 00:00:00 TRACK 22 AUDIO TITLE "L'accident" PERFORMER "Gabriel Yared" INDEX 00 01:05:52FILE "22 - Gabriel Yared - L'accident.wav" WAVE INDEX 01 00:00:00 TRACK 23 AUDIO TITLE "Le balcon chez Paul - Les quais" PERFORMER "Gabriel Yared" INDEX 00 02:03:12FILE "23 - Gabriel Yared - Le balcon chez Paul - Les quais.wav" WAVE INDEX 01 00:00:00 TRACK 24 AUDIO TITLE "Trop tard pour changer d'avis" PERFORMER "Gabriel Yared" INDEX 00 01:55:35FILE "24 - Gabriel Yared - Trop tard pour changer d'avis.wav" WAVE INDEX 01 00:00:00 TRACK 25 AUDIO TITLE "Je ne veux plus vous voir" PERFORMER "Gabriel Yared" INDEX 00 01:29:07FILE "25 - Gabriel Yared - Je ne veux plus vous voir.wav" WAVE INDEX 01 00:00:00 TRACK 26 AUDIO TITLE "Brighton - L'aube a Newhaven" PERFORMER "Gabriel Yared" INDEX 00 00:54:46FILE "26 - Gabriel Yared - Brighton - L'aube a Newhaven.wav" WAVE INDEX 01 00:00:00 TRACK 27 AUDIO TITLE "Anne arrive a New York" PERFORMER "Gabriel Yared" INDEX 00 01:24:64FILE "27 - Gabriel Yared - Anne arrive a New York.wav" WAVE INDEX 01 00:00:00 TRACK 28 AUDIO TITLE "Desordre - Generique de fin" PERFORMER "Gabriel Yared" INDEX 00 00:57:61FILE "28 - Gabriel Yared - Desordre - Generique de fin.wav" WAVE INDEX 01 00:00:00
[teatrix.ru].t12282.torrent 
Торрент: Зарегистрирован [ 2015-12-19 20:28 ] · DCC3B42CB2E5C15A7056ECA5B320E8D4D3969FE9

Скачать .torrent

Скачать

9 KB

Статус: проверено
Скачан: 0 раз
Размер: 276 MB
terms.php



Быстрый ответ

Имя:

      
Для отправки сообщений необходимо включить JavaScript
Показать сообщения:    

Текущее время: 02-Дек 23:10

Часовой пояс: UTC + 3


Вы можете начинать темы
Вы можете отвечать на сообщения
Вы не можете редактировать свои сообщения
Вы не можете удалять свои сообщения
Вы не можете голосовать в опросах
Вы не можете прикреплять файлы к сообщениям
Вы можете скачивать файлы