Жила-была я, Вероника / Era Uma Vez Eu, Veronica / Once Upon a Time Was I, Veronica (Марсело Гомес / Marcelo Gomes) [2012, Бразилия, Франция, Драма, Эротика, DVDRip-AVC] + Sub Rus + Original Por


Статистика раздачи [Обновить пиров]
Размер:  1.07 GB   |    Зарегистрирован:  11 месяцев 14 дней   |    Скачан:  1 раз

Полного источника не было: 8 месяцев 27 дней

 
   
 
 
 

[Цитировать]

Жила-была я, Вероника / Era Uma Vez Eu, Veronica / Once Upon a Time Was I, Veronica
Страна: Бразилия, Франция
Жанр: Драма, эротика
Год выпуска: 2012
Продолжительность: 01:31:22
Перевод: Субтитры
Cубтитры: русские: creo140
Оригинальная аудиодорожка: португальский
Режиссер: Марсело Гомес / Marcelo Gomes
В ролях: Маевэ Жинкингз, Эрмила Гуэдес, Джоао Мигель, Жулио Роша, Антеро Монтенегро, Мадалена Ассиоли, Карина Бур
Описание: Фильм открывает бесстыдная и невинная, живая, естественная как вода и воздух сцена группового секса на океанском пляже. Но это — грёза, фантазия, не имеющая прямого отношения к существованию заглавной героини, ведущей скромную и спокойную жизнь со стариком-отцом. Нет, в её жизни есть мужчина, есть секс, есть мечта — исцелять людей, и язык не повернётся назвать эту жизнь заурядной или бессмысленной…
Доп. информация: http://www.kinopoisk.ru/film/704348/
http://www.imdb.com/title/tt1663661
Сэмпл: http://multi-up.com/1080129
Качество видео: DVDRip-AVC
Формат видео: MKV
Видео: MPEG4 Video (H264) 608x384 23.976fps
Аудио: MP3 48000Hz stereo 192kbps
Формат субтитров: softsub (SRT)

Фрагмент субтитров

427
00:50:18,208 --> 00:50:20,108
Что, всё?
428
00:50:22,145 --> 00:50:25,012
Тогда нам надо отрепетировать в паре.
429
00:50:25,549 --> 00:50:27,744
Отрепетировать?
- Да.
430
00:50:30,253 --> 00:50:32,585
Я начну.
431
00:50:36,993 --> 00:50:38,153
Моя любовь.
432
00:50:40,597 --> 00:50:42,292
Я люблю тебя.
433
00:50:44,234 --> 00:50:47,635
Ты свет моей жизни...
434
00:50:50,240 --> 00:50:53,471
И я не могу жить без тебя.
435
00:50:53,910 --> 00:50:56,845
Это не сработает.
Я не знаю, как это сделать.
436
00:50:59,382 --> 00:51:00,974
Ты, полный отстой.
437
00:51:01,818 --> 00:51:03,513
Ты действительно всё провалил.
438
00:51:05,021 --> 00:51:06,454
Я люблю тебя.
439
00:51:07,824 --> 00:51:09,052
Я люблю тебя.
440
00:51:11,128 --> 00:51:12,959
Я люблю тебя.
441
00:51:16,833 --> 00:51:20,098
Хорошо?
Уже лучше?
442
00:51:30,280 --> 00:51:33,215
Мой папа не такой,
чтобы верить во всякую фигню.
443
00:51:38,288 --> 00:51:40,313
Как так?
444
00:51:42,526 --> 00:51:45,086
"Я люблю тебя" и каждый верит.
445
00:51:52,269 --> 00:51:54,999
Тебе нужно больше практиковаться.
446
00:51:56,006 --> 00:51:57,633
Больше практики?
447
00:51:57,841 --> 00:51:59,832
Ты просишь меня быть твоим парнем?
448
00:52:13,924 --> 00:52:15,585
Что случилось?
449
00:52:15,825 --> 00:52:18,589
Боль в ноге стала гораздо сильнее.

MediaInfo

Format : Matroska
Format version : Version 1
File size : 1.07 GiB
Duration : 1h 31mn
Overall bit rate : 1 679 Kbps
Encoded date : UTC 2013-05-09 22:12:37
Writing application : VirtualDubMod 1.5.10.2 (build 2540/release)
Writing library : libebml-0.7.5 & libmatroska-0.7.7
Video
ID : 1
Format : AVC
Format/Info : Advanced Video Codec
Format profile : Main@L3
Format settings, CABAC : Yes
Format settings, ReFrames : 2 frames
Codec ID : V_MS/VFW/FOURCC / H264
Duration : 1h 31mn
Bit rate : 1 484 Kbps
Width : 608 pixels
Height : 384 pixels
Display aspect ratio : 16:10
Frame rate mode : Constant
Frame rate : 23.976 fps
Color space : YUV
Chroma subsampling : 4:2:0
Bit depth : 8 bits
Scan type : Progressive
Bits/(Pixel*Frame) : 0.265
Stream size : 950 MiB (87%)
Writing library : x264 core 93 r1538bm bd72d46
Encoding settings : cabac=1 / ref=1 / deblock=1:0:0 / analyse=0x1:0x131 / me=hex / subme=4 / psy=1 / psy_rd=0.00:0.00 / mixed_ref=0 / me_range=16 / chroma_me=0 / trellis=1 / 8x8dct=0 / cqm=0 / deadzone=21,11 / fast_pskip=1 / chroma_qp_offset=0 / threads=2 / sliced_threads=1 / slices=2 / nr=0 / decimate=1 / interlaced=0 / constrained_intra=0 / bframes=2 / b_pyramid=0 / b_adapt=1 / b_bias=0 / direct=1 / wpredb=1 / wpredp=2 / keyint=250 / keyint_min=25 / scenecut=40 / intra_refresh=0 / rc=2pass / mbtree=0 / bitrate=1484 / ratetol=1.0 / qcomp=0.60 / qpmin=10 / qpmax=51 / qpstep=4 / cplxblur=20.0 / qblur=0.5 / ip_ratio=1.40 / pb_ratio=1.30 / aq=1:1.00
Language : English
Default : Yes
Forced : No
Audio
ID : 2
Format : MPEG Audio
Format version : Version 1
Format profile : Layer 3
Mode : Joint stereo
Mode extension : MS Stereo
Codec ID : A_MPEG/L3
Codec ID/Hint : MP3
Duration : 1h 31mn
Bit rate mode : Constant
Bit rate : 192 Kbps
Channel(s) : 2 channels
Sampling rate : 48.0 KHz
Compression mode : Lossy
Stream size : 125 MiB (11%)
Writing library : LAME3.97
Encoding settings : -m j -V 4 -q 2 -lowpass 18.6 -b 192
Language : English
Default : Yes
Forced : No
Menu
00:00:00.000 : Ch. 01 @ 00:00:00
00:07:05.425 : Ch. 02 @ 00:07:05
00:14:43.382 : Ch. 03 @ 00:14:43
00:21:43.302 : Ch. 04 @ 00:21:43
00:28:28.206 : Ch. 05 @ 00:28:28
00:33:14.993 : Ch. 06 @ 00:33:14
00:40:42.440 : Ch. 07 @ 00:40:42
00:45:33.731 : Ch. 08 @ 00:45:33
00:54:22.259 : Ch. 09 @ 00:54:22
01:01:59.716 : Ch. 10 @ 01:01:59
01:10:36.232 : Ch. 11 @ 01:10:36
01:20:52.848 : Ch. 12 @ 01:20:52

Скриншот c названием фильма

[teatrix.ru].t12286.torrent 
Торрент: Зарегистрирован [ 2015-12-20 13:15 ] · 9CD649149B046E14DF4DAD454F0542F9C5B88691

Скачать .torrent

Скачать

11 KB

Статус: проверено
Скачан: 1 раз
Размер: 1.07 GB
terms.php



Быстрый ответ

Имя:

      
Для отправки сообщений необходимо включить JavaScript
Показать сообщения:    

Текущее время: 04-Дек 13:11

Часовой пояс: UTC + 3


Вы можете начинать темы
Вы можете отвечать на сообщения
Вы не можете редактировать свои сообщения
Вы не можете удалять свои сообщения
Вы не можете голосовать в опросах
Вы не можете прикреплять файлы к сообщениям
Вы можете скачивать файлы