Белла Ахмадулина. Вечер в Концертной студии "Останкино" [1976 г., Творческий вечер, SATRip] Концертная студия "Останкино"


 

[Цитировать]

Белла Ахмадулина. Вечер в Концертной студии "Останкино" Концертная студия "Останкино".
Год выпуска: 1976.
Жанр: Творческий вечер.
Продолжительность: 01:25:08.
Описание:
Белла Ахмадулина читает свои стихи и отвечает на вопросы зрителей.
Дополнительная информация:
Страна: СССР .
Релиз
Рип.....

Качество видео:...SATRip
Формат:.................AVI
Видео:..704x528 (1.33:1), 25 fps, DivX Codec 5.2.1 build 1338 ~1799 kbps avg, 0.19 bit/pixel
Аудио:..48 kHz, MPEG Layer 3, 2 ch, ~128.00 kbps avg

Отчет Media Info

General
Complete name : Bella.Ahmadulina.Vecher.v.Koncertnoj.studii.Ostankino.1976.DivX.SATRip.by.mikloeff.avi
Format : AVI
Format/Info : Audio Video Interleave
File size : 1.15 GiB
Duration : 1h 25mn
Overall bit rate : 1 937 Kbps
Writing library : VirtualDub build 35390/release
Video
ID : 0
Format : MPEG-4 Visual
Format settings, BVOP : No
Format settings, QPel : No
Format settings, GMC : No warppoints
Format settings, Matrix : Default (H.263)
Codec ID : DX50
Codec ID/Hint : DivX 5
Duration : 1h 25mn
Bit rate : 1 800 Kbps
Width : 704 pixels
Height : 528 pixels
Display aspect ratio : 4:3
Frame rate : 25.000 fps
Color space : YUV
Chroma subsampling : 4:2:0
Bit depth : 8 bits
Scan type : Progressive
Compression mode : Lossy
Bits/(Pixel*Frame) : 0.194
Stream size : 1.07 GiB (93%)
Writing library : DivX 5.2.1 (DrDivX 106) (UTC 2004-09-08)
Audio
ID : 1
Format : MPEG Audio
Format version : Version 1
Format profile : Layer 3
Mode : Joint stereo
Mode extension : MS Stereo
Codec ID : 55
Codec ID/Hint : MP3
Duration : 1h 25mn
Bit rate mode : Constant
Bit rate : 128 Kbps
Channel(s) : 2 channels
Sampling rate : 48.0 KHz
Compression mode : Lossy
Stream size : 77.9 MiB (7%)
Alignment : Split accross interleaves
Interleave, duration : 40 ms (1.00 video frame)
Interleave, preload duratio : 500 ms.

Скриншоты

Альтернативный хост




Показать сообщения:    

Текущее время: 04-Дек 13:11

Часовой пояс: UTC + 3


Вы не можете начинать темы
Вы не можете отвечать на сообщения
Вы не можете редактировать свои сообщения
Вы не можете удалять свои сообщения
Вы не можете голосовать в опросах
Вы не можете прикреплять файлы к сообщениям
Вы не можете скачивать файлы