(Classical) Beethoven - The Late String Quartets arranged for string orchestra - Camerata Nordica, Terje Tønnesen (Tonnesen) - 2013, FLAC (image+.cue) lossless


 

[Цитировать]

Beethoven - The Late String Quartets arranged for string orchestra - Camerata Nordica, Terje Tønnesen
Жанр: Classical
Страна-производитель диска: Sweden
Год издания диска: 2013
Издатель (лейбл): BIS
Номер по каталогу: BIS-CD-1096
Дата записи: 2001-2005
Аудиокодек: FLAC
Тип рипа: image+.cue
Битрейт аудио: lossless
Продолжительность: 3:05:47
Источник: собственный рип
Наличие сканов в содержимом раздачи: да
Треклист:
Ludwig van Beethoven (1770–1827)
The Late String Quartets
arranged by Terje Tønnesen for string orchestra
CD1
[1]-[4] String Quartet No. 12 in E flat major, Op. 127
[5]-[11] String Quartet No. 14 in C sharp minor, Op. 131
CD2
[1]-[6] String Quartet No. 13 in B flat major, Op. 130
CD3
[1]-[5] String Quartet No. 15 in A minor, Op. 132
[6]-[9] String Quartet No. 16 in F major, Op. 135
Исполнители:
Camerata Nordica
directed by Terje Tønnesen

Лог создания рипа: CD1

Exact Audio Copy V1.0 beta 3 from 29. August 2011
EAC extraction logfile from 17. April 2015, 21:23
Camerata Nordica, Terje Tønnesen / Beethoven - The Late String Quartets - CD1
Used drive : HL-DT-STDVDRAM GU70N Adapter: 0 ID: 0
Read mode : SecureUtilize accurate stream : YesDefeat audio cache : YesMake use of C2 pointers : No
Read offset correction : 48Overread into Lead-In and Lead-Out : NoFill up missing offset samples with silence : YesDelete leading and trailing silent blocks : NoNull samples used in CRC calculations : YesUsed interface : Native Win32 interface for Win NT & 2000
Used output format : User Defined EncoderSelected bitrate : 128 kBit/sQuality : HighAdd ID3 tag : NoCommand line compressor : C:\Program Files (x86)\Exact Audio Copy\Flac\flac.exeAdditional command line options : -V -8 -T "Date=%year%" -T "Genre=%genre%" %source%
TOC of the extracted CD
Track | Start | Length | Start sector | End sector --------------------------------------------------------- 1 | 0:00.00 | 6:14.01 | 0 | 28050 2 | 6:14.01 | 18:09.14 | 28051 | 109739 3 | 24:23.15 | 6:38.47 | 109740 | 139636 4 | 31:01.62 | 7:08.25 | 139637 | 171761 5 | 38:10.12 | 6:37.65 | 171762 | 201601 6 | 44:48.02 | 3:00.07 | 201602 | 215108 7 | 47:48.09 | 0:51.69 | 215109 | 219002 8 | 48:40.03 | 13:25.54 | 219003 | 279431 9 | 62:05.57 | 5:17.26 | 279432 | 303232 10 | 67:23.08 | 2:09.20 | 303233 | 312927 11 | 69:32.28 | 6:34.74 | 312928 | 342551
Range status and errors
Selected range
Filename C:\temp\BIS-CD-1096 - Beethoven - The Late String Quartets\CD1\Beethoven - The Late String Quartets - CD1.wav
Peak level 97.7 % Extraction speed 2.3 X Range quality 99.9 % Test CRC 915F347E Copy CRC 915F347E Copy OK
No errors occurred
AccurateRip summary
Track 1 accurately ripped (confidence 1) [B42189F9] (AR v2)Track 2 accurately ripped (confidence 1) [788BB77D] (AR v2)Track 3 accurately ripped (confidence 1) [EF852014] (AR v2)Track 4 accurately ripped (confidence 1) [9D717E7D] (AR v2)Track 5 accurately ripped (confidence 1) [F359075C] (AR v2)Track 6 accurately ripped (confidence 1) [FA3A3851] (AR v2)Track 7 accurately ripped (confidence 1) [454604C3] (AR v2)Track 8 accurately ripped (confidence 1) [C26CB04A] (AR v2)Track 9 accurately ripped (confidence 1) [57A373F2] (AR v2)Track 10 accurately ripped (confidence 1) [18A22D92] (AR v2)Track 11 accurately ripped (confidence 1) [283C9D02] (AR v2)
All tracks accurately ripped
End of status report
==== Log checksum 69EBA590B5BBFA3869243A02C5D555F4CA93DEA7D6D82B832020820607AA0B6C ====

Лог создания рипа: CD2

Exact Audio Copy V1.0 beta 3 from 29. August 2011
EAC extraction logfile from 18. April 2015, 0:12
Camerata Nordica, Terje Tønnesen / Beethoven - The Late String Quartets - CD2
Used drive : HL-DT-STDVDRAM GU70N Adapter: 0 ID: 0
Read mode : SecureUtilize accurate stream : YesDefeat audio cache : YesMake use of C2 pointers : No
Read offset correction : 48Overread into Lead-In and Lead-Out : NoFill up missing offset samples with silence : YesDelete leading and trailing silent blocks : NoNull samples used in CRC calculations : YesUsed interface : Native Win32 interface for Win NT & 2000
Used output format : User Defined EncoderSelected bitrate : 128 kBit/sQuality : HighAdd ID3 tag : NoCommand line compressor : C:\Program Files (x86)\Exact Audio Copy\Flac\flac.exeAdditional command line options : -V -8 -T "Date=%year%" -T "Genre=%genre%" %source%
TOC of the extracted CD
Track | Start | Length | Start sector | End sector --------------------------------------------------------- 1 | 0:00.00 | 12:37.51 | 0 | 56825 2 | 12:37.51 | 2:10.31 | 56826 | 66606 3 | 14:48.07 | 6:14.27 | 66607 | 94683 4 | 21:02.34 | 2:59.54 | 94684 | 108162 5 | 24:02.13 | 6:55.64 | 108163 | 139351 6 | 30:58.02 | 14:56.08 | 139352 | 206559
Range status and errors
Selected range
Filename C:\temp\BIS-CD-1096 - Beethoven - The Late String Quartets\CD2\Beethoven - The Late String Quartets - CD2.wav
Peak level 78.8 % Extraction speed 4.8 X Range quality 100.0 % Test CRC EF33C647 Copy CRC EF33C647 Copy OK
No errors occurred
AccurateRip summary
Track 1 accurately ripped (confidence 1) [397E0148] (AR v2)Track 2 accurately ripped (confidence 1) [66F09793] (AR v2)Track 3 accurately ripped (confidence 1) [CF547476] (AR v2)Track 4 accurately ripped (confidence 1) [323C17D3] (AR v2)Track 5 accurately ripped (confidence 1) [98965C76] (AR v2)Track 6 accurately ripped (confidence 1) [471A73BE] (AR v2)
All tracks accurately ripped
End of status report
==== Log checksum 862776510F4C63457D57A58BA00833D81F4BA64A82019766EAA1B718ACC25BE9 ====

Лог создания рипа: CD3

Exact Audio Copy V1.0 beta 3 from 29. August 2011
EAC extraction logfile from 18. April 2015, 1:21
Camerata Nordica, Terje Tønnesen / Beethoven - The Late String Quartets - CD3
Used drive : HL-DT-STDVDRAM GU70N Adapter: 0 ID: 0
Read mode : SecureUtilize accurate stream : YesDefeat audio cache : YesMake use of C2 pointers : No
Read offset correction : 48Overread into Lead-In and Lead-Out : NoFill up missing offset samples with silence : YesDelete leading and trailing silent blocks : NoNull samples used in CRC calculations : YesUsed interface : Native Win32 interface for Win NT & 2000
Used output format : User Defined EncoderSelected bitrate : 128 kBit/sQuality : HighAdd ID3 tag : NoCommand line compressor : C:\Program Files (x86)\Exact Audio Copy\Flac\flac.exeAdditional command line options : -V -8 -T "Date=%year%" -T "Genre=%genre%" %source%
TOC of the extracted CD
Track | Start | Length | Start sector | End sector --------------------------------------------------------- 1 | 0:00.00 | 9:38.09 | 0 | 43358 2 | 9:38.09 | 6:34.29 | 43359 | 72937 3 | 16:12.38 | 15:52.58 | 72938 | 144395 4 | 32:05.21 | 2:07.12 | 144396 | 153932 5 | 34:12.33 | 6:31.06 | 153933 | 183263 6 | 40:43.39 | 5:58.35 | 183264 | 210148 7 | 46:41.74 | 3:30.19 | 210149 | 225917 8 | 50:12.18 | 6:40.32 | 225918 | 255949 9 | 56:52.50 | 6:53.41 | 255950 | 286965
Range status and errors
Selected range
Filename C:\temp\BIS-CD-1096 - Beethoven - The Late String Quartets\CD3\Beethoven - The Late String Quartets - CD3.wav
Peak level 97.7 % Extraction speed 2.1 X Range quality 100.0 % Test CRC CEF45019 Copy CRC CEF45019 Copy OK
No errors occurred
AccurateRip summary
Track 1 accurately ripped (confidence 1) [B82CCAF3] (AR v2)Track 2 accurately ripped (confidence 1) [CFC052A9] (AR v2)Track 3 accurately ripped (confidence 1) [A8706037] (AR v2)Track 4 accurately ripped (confidence 1) [D3414622] (AR v2)Track 5 accurately ripped (confidence 1) [E6F91AB8] (AR v2)Track 6 accurately ripped (confidence 1) [7B34489A] (AR v2)Track 7 accurately ripped (confidence 1) [9ABA3D8F] (AR v2)Track 8 accurately ripped (confidence 1) [F7B46017] (AR v2)Track 9 accurately ripped (confidence 1) [536CBABF] (AR v2)
All tracks accurately ripped
End of status report
==== Log checksum D6C90E54E5C58D2529A3716BA7C7CF54E96B8C66D3502DDDB4E81A0797CE1B4A ====



Показать сообщения:    

Текущее время: 09-Дек 22:20

Часовой пояс: UTC + 3


Вы не можете начинать темы
Вы не можете отвечать на сообщения
Вы не можете редактировать свои сообщения
Вы не можете удалять свои сообщения
Вы не можете голосовать в опросах
Вы не можете прикреплять файлы к сообщениям
Вы не можете скачивать файлы