(Soundtrack) Возвращение Суперфлая / Return Of Superfly (Return Of Superfly (Original Motion Picture Soundtrack)) (Curtis Mayfield) - 1990, FLAC (image+.cue), lossless


Статистика раздачи [Обновить пиров]
Размер:  317 MB   |    Зарегистрирован:  11 месяцев 14 дней   |    Скачан:  0 раз

Полного источника не было: Никогда

Личеров:  2  [  0 KB/s  ]   Подробная статистика пиров
 
   
 
 
 

[Цитировать]

Возвращение Суперфлая / Return Of Superfly
Название альбома: Return Of Superfly (Original Motion Picture Soundtrack)
Жанр: Soundtrack
Композитор: Curtis Mayfield
Год выпуска диска: 1990
Год выпуска фильма: 1990
Страна-производитель диска: UK
Издатель (лейбл): Capitol
Номер по каталогу: CDP 7 94244 2
Аудиокодек: FLAC (*.flac)
Тип рипа: image+.cue
Битрейт аудио: lossless
Продолжительность: 00:54:09
Источник: собственный рип
Треклист:
01 Curtis Mayfield - Superfly 1990 (feat. Ice-T)
02 Eazy-E - Eazy Street
03 Tone Loc - Cheeba Cheeba
04 Mellow Man Ace - Funky In The Joint
05 Def Jef - On The Real Tip
06 Curtis Mayfield - Showdown
07 Curtis Mayfield - Forbidden
08 King Tee - Take You Home
09 Uzi Bros. - There's A Riot Jumpin' Off
10 C.P.O. - Somethin' Like This
11 Curtis Mayfield - Superfly 1990 (Hip Hop Instrumental)
12 Curtis Mayfield - For The Love Of You

Лог создания рипа

Exact Audio Copy V1.1 from 23. June 2015
EAC extraction logfile from 17. December 2015, 21:15
Various / Return Of Superfly
Used drive : TSSTcorpCDDVDW TS-L633C Adapter: 1 ID: 0
Read mode : SecureUtilize accurate stream : YesDefeat audio cache : YesMake use of C2 pointers : No
Read offset correction : 6Overread into Lead-In and Lead-Out : NoFill up missing offset samples with silence : YesDelete leading and trailing silent blocks : NoNull samples used in CRC calculations : YesUsed interface : Native Win32 interface for Win NT & 2000
Used output format : User Defined EncoderSelected bitrate : 768 kBit/sQuality : HighAdd ID3 tag : NoCommand line compressor : C:\Program Files (x86)\Exact Audio Copy\Flac\flac.exeAdditional command line options : -V -8 -T "Date=%year%" -T "Genre=%genre%" %source%
TOC of the extracted CD
Track | Start | Length | Start sector | End sector --------------------------------------------------------- 1 | 0:00.33 | 4:38.45 | 33 | 20927 2 | 4:39.03 | 4:28.55 | 20928 | 41082 3 | 9:07.58 | 6:06.15 | 41083 | 68547 4 | 15:13.73 | 3:50.45 | 68548 | 85842 5 | 19:04.43 | 5:36.05 | 85843 | 111047 6 | 24:40.48 | 4:23.55 | 111048 | 130827 7 | 29:04.28 | 4:31.00 | 130828 | 151152 8 | 33:35.28 | 4:18.30 | 151153 | 170532 9 | 37:53.58 | 4:23.47 | 170533 | 190304 10 | 42:17.30 | 3:37.23 | 190305 | 206602 11 | 45:54.53 | 4:15.15 | 206603 | 225742 12 | 50:09.68 | 3:59.70 | 225743 | 243737
Range status and errors
Selected range
Filename C:\Users\Music\12.RIPS\Various - Return Of Superfly.wav
Peak level 84.8 % Extraction speed 4.2 X Range quality 100.0 % Test CRC 2C9F34F6 Copy CRC 2C9F34F6 Copy OK
No errors occurred
AccurateRip summary
Track 1 accurately ripped (confidence 2) [F8434AD5] (AR v2)Track 2 accurately ripped (confidence 2) [3EB678A8] (AR v2)Track 3 accurately ripped (confidence 2) [164F1C38] (AR v2)Track 4 accurately ripped (confidence 2) [026F54F0] (AR v2)Track 5 accurately ripped (confidence 2) [604CECE1] (AR v2)Track 6 accurately ripped (confidence 2) [D0F56740] (AR v2)Track 7 accurately ripped (confidence 2) [AD5CB3B7] (AR v2)Track 8 accurately ripped (confidence 2) [06499B18] (AR v2)Track 9 accurately ripped (confidence 1) [4B142AB9] (AR v2)Track 10 accurately ripped (confidence 1) [E7D8ABCB] (AR v2)Track 11 accurately ripped (confidence 1) [015FC997] (AR v2)Track 12 accurately ripped (confidence 1) [B6DAD4AF] (AR v2)
All tracks accurately ripped
End of status report
---- CUETools DB Plugin V2.1.6
[CTDB TOCID: 2aGK7dsvLj2GIRzrXhb0VQ1Wt_A-] disk not present in databaseSubmit result: 2aGK7dsvLj2GIRzrXhb0VQ1Wt_A- has been uploaded
==== Log checksum 71DE2BD42F31CE04DDB8BDC882BC97E01F266B0FAAD33C5F2723286272514BB9 ====
[teatrix.ru].t12294.torrent 
Торрент: Зарегистрирован [ 2015-12-20 13:15 ] · AD337699F22DD1F74303BF1D98ADCF00BBB9AEDD

Скачать .torrent

Скачать

13 KB

Статус: проверено
Скачан: 0 раз
Размер: 317 MB
terms.php



Быстрый ответ

Имя:

      
Для отправки сообщений необходимо включить JavaScript
Показать сообщения:    

Текущее время: 03-Дек 20:40

Часовой пояс: UTC + 3


Вы можете начинать темы
Вы можете отвечать на сообщения
Вы не можете редактировать свои сообщения
Вы не можете удалять свои сообщения
Вы не можете голосовать в опросах
Вы не можете прикреплять файлы к сообщениям
Вы можете скачивать файлы