(Score) Henry Mancini - Eight Classic Albums [4CD Set] - 2014, FLAC (tracks+.cue), lossless


Статистика раздачи [Обновить пиров]
Размер:  1.55 GB   |    Зарегистрирован:  11 месяцев 15 дней   |    Скачан:  1 раз

Полного источника не было: 3 месяца 10 дней

 
   
 
 
 

[Цитировать]

Henry Mancini - Eight Classic Albums [4CD Set]

Название альбома: Henry Mancini - Eight Classic Albums [4CD Set]
Жанр: Score
Композитор: Henry Mancini
Год выпуска диска: 2014
Издатель (лейбл): Real Gone Music
Номер по каталогу: RGMCD097
Аудиокодек: FLAC (*.flac)
Тип рипа: tracks+.cue
Битрейт аудио: lossless
Продолжительность: 74:14 / 69:40 / 64:30 / 61:13
Источник (релизер): авакс (ruskaval)
Наличие сканов в содержимом раздачи: да
 
 

CD 1 - Peter Gunn & Mr. Lucky

Треклист:
Peter Gunn (1959)
01. Peter Gunn (2:03)
02. Sorta Blues (2:54)
03. The Brothers Go To Mother's (2:43)
04. Dreamsville (3:38)
05. Session At Pete's Pad (3:48)
06. Soft Sounds (3:35)
07. Fallout (3:10)
08. The Floater (3:15)
09. Slow And Easy (3:46)
10. A Profound Gass (3:09)
11. Brief And Breezy (3:28)
12. Not From Dixie (4:22)
Mr. Lucky (1960)
13. Mr. Lucky (2:13)
14. My Friend Andamo (3:31)
15. Softly (2:44)
16. March Of The Cue Balls (3:15)
17. Lightly Latin (2:55)
18. Tipsy (2:30)
19. Floating Pad (2:50)
20. One Eyed Cat (3:15)
21. Night Flower (2:24)
22. Chime Time (3:16)
23. Blue Satin (2:34)
24. That's It And That's All (2:53)
 

Лог создания рипа

Exact Audio Copy V1.0 beta 3 from 29. August 2011
EAC extraction logfile from 2. August 2015, 13:48
Henry Mancini / Peter Gunn & Mr Lucky
Used drive : PLEXTOR BD-R PX-B950SA Adapter: 3 ID: 0
Read mode : SecureUtilize accurate stream : YesDefeat audio cache : YesMake use of C2 pointers : No
Read offset correction : 6Overread into Lead-In and Lead-Out : NoFill up missing offset samples with silence : YesDelete leading and trailing silent blocks : NoNull samples used in CRC calculations : YesUsed interface : Native Win32 interface for Win NT & 2000Gap handling : Appended to previous track
Used output format : User Defined EncoderSelected bitrate : 1024 kBit/sQuality : HighAdd ID3 tag : NoCommand line compressor : C:\Program Files (x86)\Exact Audio Copy\Flac\flac.exeAdditional command line options : -8 -V -T "ARTIST=%artist%" -T "TITLE=%title%" -T "ALBUM=%albumtitle%" -T "DATE=%year%" -T "TRACKNUMBER=%tracknr%" -T "TOTALTRACKS=%numtracks%" -T "GENRE=%genre%" -T "ALBUMARTIST=%albumartist%" -T "ALBUM ARTIST=%albumartist%" -T "COMMENT=EAC Secure Mode, Test & Copy, AccurateRip, FLAC -8" %source%
TOC of the extracted CD
Track | Start | Length | Start sector | End sector --------------------------------------------------------- 1 | 0:00.00 | 2:03.31 | 0 | 9255 2 | 2:03.31 | 2:54.11 | 9256 | 22316 3 | 4:57.42 | 2:42.67 | 22317 | 34533 4 | 7:40.34 | 3:38.14 | 34534 | 50897 5 | 11:18.48 | 3:48.19 | 50898 | 68016 6 | 15:06.67 | 3:34.67 | 68017 | 84133 7 | 18:41.59 | 3:09.52 | 84134 | 98360 8 | 21:51.36 | 3:15.32 | 98361 | 113017 9 | 25:06.68 | 3:45.68 | 113018 | 129960 10 | 28:52.61 | 3:09.01 | 129961 | 144136 11 | 32:01.62 | 3:28.33 | 144137 | 159769 12 | 35:30.20 | 4:22.01 | 159770 | 179420 13 | 39:52.21 | 2:12.50 | 179421 | 189370 14 | 42:04.71 | 3:31.01 | 189371 | 205196 15 | 45:35.72 | 2:44.36 | 205197 | 217532 16 | 48:20.33 | 3:14.40 | 217533 | 232122 17 | 51:34.73 | 2:55.32 | 232123 | 245279 18 | 54:30.30 | 2:30.34 | 245280 | 256563 19 | 57:00.64 | 2:49.57 | 256564 | 269295 20 | 59:50.46 | 3:15.12 | 269296 | 283932 21 | 63:05.58 | 2:24.25 | 283933 | 294757 22 | 65:30.08 | 3:16.29 | 294758 | 309486 23 | 68:46.37 | 2:34.20 | 309487 | 321056 24 | 71:20.57 | 2:53.30 | 321057 | 334061
Track 1
Filename Z:\#Torrents\Eigene\#EAC default\Henry Mancini - Eight Classic Albums (2014) [FLAC]\CD1 - Peter Gunn & Mr Lucky\01 - Peter Gunn.wav
Pre-gap length 0:00:02.00
Peak level 87.5 % Extraction speed 1.9 X Track quality 100.0 % Test CRC 8C29E908 Copy CRC 8C29E908 Cannot be verified as accurate (confidence 5) [2E8495C7], AccurateRip returned [B207284D] (AR v2) Copy OK
Track 2
Filename Z:\#Torrents\Eigene\#EAC default\Henry Mancini - Eight Classic Albums (2014) [FLAC]\CD1 - Peter Gunn & Mr Lucky\02 - Sorta Blues.wav
Peak level 74.3 % Extraction speed 2.2 X Track quality 100.0 % Test CRC 8F40272E Copy CRC 8F40272E Cannot be verified as accurate (confidence 5) [5A151EB3], AccurateRip returned [608CADCE] (AR v2) Copy OK
Track 3
Filename Z:\#Torrents\Eigene\#EAC default\Henry Mancini - Eight Classic Albums (2014) [FLAC]\CD1 - Peter Gunn & Mr Lucky\03 - The Brothers Go To Mother's.wav
Peak level 81.4 % Extraction speed 2.3 X Track quality 100.0 % Test CRC 78A9CEA4 Copy CRC 78A9CEA4 Cannot be verified as accurate (confidence 5) [84D12D0C], AccurateRip returned [DB379DF2] (AR v2) Copy OK
Track 4
Filename Z:\#Torrents\Eigene\#EAC default\Henry Mancini - Eight Classic Albums (2014) [FLAC]\CD1 - Peter Gunn & Mr Lucky\04 - Dreamsville.wav
Peak level 100.0 % Extraction speed 2.6 X Track quality 100.0 % Test CRC 744C0FA5 Copy CRC 744C0FA5 Cannot be verified as accurate (confidence 5) [5BD3473D], AccurateRip returned [97B3C356] (AR v2) Copy OK
Track 5
Filename Z:\#Torrents\Eigene\#EAC default\Henry Mancini - Eight Classic Albums (2014) [FLAC]\CD1 - Peter Gunn & Mr Lucky\05 - Session At Pete's Pad.wav
Peak level 97.1 % Extraction speed 2.8 X Track quality 100.0 % Test CRC 16AB0EAA Copy CRC 16AB0EAA Cannot be verified as accurate (confidence 5) [4B97C335], AccurateRip returned [DECC8428] (AR v2) Copy OK
Track 6
Filename Z:\#Torrents\Eigene\#EAC default\Henry Mancini - Eight Classic Albums (2014) [FLAC]\CD1 - Peter Gunn & Mr Lucky\06 - Soft Sounds.wav
Peak level 66.9 % Extraction speed 2.9 X Track quality 100.0 % Test CRC 56306A33 Copy CRC 56306A33 Cannot be verified as accurate (confidence 5) [D70EAA3F], AccurateRip returned [22BBF2E8] (AR v2) Copy OK
Track 7
Filename Z:\#Torrents\Eigene\#EAC default\Henry Mancini - Eight Classic Albums (2014) [FLAC]\CD1 - Peter Gunn & Mr Lucky\07 - Fallout.wav
Peak level 92.8 % Extraction speed 3.0 X Track quality 100.0 % Test CRC 7DDC793F Copy CRC 7DDC793F Cannot be verified as accurate (confidence 5) [25DB8082], AccurateRip returned [CF22B0B1] (AR v2) Copy OK
Track 8
Filename Z:\#Torrents\Eigene\#EAC default\Henry Mancini - Eight Classic Albums (2014) [FLAC]\CD1 - Peter Gunn & Mr Lucky\08 - The Floater.wav
Peak level 54.9 % Extraction speed 3.1 X Track quality 100.0 % Test CRC 37D4090B Copy CRC 37D4090B Cannot be verified as accurate (confidence 5) [16C410BD], AccurateRip returned [AE011C0E] (AR v2) Copy OK
Track 9
Filename Z:\#Torrents\Eigene\#EAC default\Henry Mancini - Eight Classic Albums (2014) [FLAC]\CD1 - Peter Gunn & Mr Lucky\09 - Slow And Easy.wav
Peak level 61.3 % Extraction speed 3.4 X Track quality 100.0 % Test CRC 48AA05A2 Copy CRC 48AA05A2 Cannot be verified as accurate (confidence 5) [5510BD37], AccurateRip returned [81F1D20C] (AR v2) Copy OK
Track 10
Filename Z:\#Torrents\Eigene\#EAC default\Henry Mancini - Eight Classic Albums (2014) [FLAC]\CD1 - Peter Gunn & Mr Lucky\10 - A Profound Gass.wav
Peak level 77.9 % Extraction speed 3.4 X Track quality 100.0 % Test CRC E48D0DB0 Copy CRC E48D0DB0 Cannot be verified as accurate (confidence 5) [11F2EB91], AccurateRip returned [C0003062] (AR v2) Copy OK
Track 11
Filename Z:\#Torrents\Eigene\#EAC default\Henry Mancini - Eight Classic Albums (2014) [FLAC]\CD1 - Peter Gunn & Mr Lucky\11 - Brief And Breezy.wav
Peak level 78.9 % Extraction speed 3.5 X Track quality 100.0 % Test CRC E95F343E Copy CRC E95F343E Cannot be verified as accurate (confidence 5) [D734FFB6], AccurateRip returned [60F5AE7C] (AR v2) Copy OK
Track 12
Filename Z:\#Torrents\Eigene\#EAC default\Henry Mancini - Eight Classic Albums (2014) [FLAC]\CD1 - Peter Gunn & Mr Lucky\12 - Not From Dixie.wav
Peak level 100.0 % Extraction speed 3.8 X Track quality 100.0 % Test CRC 055F1348 Copy CRC 055F1348 Cannot be verified as accurate (confidence 5) [BE05A1E1], AccurateRip returned [1154C438] (AR v2) Copy OK
Track 13
Filename Z:\#Torrents\Eigene\#EAC default\Henry Mancini - Eight Classic Albums (2014) [FLAC]\CD1 - Peter Gunn & Mr Lucky\13 - Mr. Lucky.wav
Peak level 75.0 % Extraction speed 3.5 X Track quality 100.0 % Test CRC E48CB271 Copy CRC E48CB271 Cannot be verified as accurate (confidence 4) [E4C46D85], AccurateRip returned [25B3F45B] (AR v2) Copy OK
Track 14
Filename Z:\#Torrents\Eigene\#EAC default\Henry Mancini - Eight Classic Albums (2014) [FLAC]\CD1 - Peter Gunn & Mr Lucky\14 - My Friend Andamo.wav
Peak level 84.0 % Extraction speed 3.9 X Track quality 100.0 % Test CRC A60E6A72 Copy CRC A60E6A72 Cannot be verified as accurate (confidence 4) [32018136], AccurateRip returned [4EA8BE09] (AR v2) Copy OK
Track 15
Filename Z:\#Torrents\Eigene\#EAC default\Henry Mancini - Eight Classic Albums (2014) [FLAC]\CD1 - Peter Gunn & Mr Lucky\15 - Softly.wav
Peak level 74.5 % Extraction speed 3.8 X Track quality 100.0 % Test CRC E215D9B6 Copy CRC E215D9B6 Cannot be verified as accurate (confidence 4) [D875F9C0], AccurateRip returned [E3788DA4] (AR v2) Copy OK
Track 16
Filename Z:\#Torrents\Eigene\#EAC default\Henry Mancini - Eight Classic Albums (2014) [FLAC]\CD1 - Peter Gunn & Mr Lucky\16 - March Of The Cue Balls.wav
Peak level 84.7 % Extraction speed 2.8 X Track quality 99.9 % Test CRC 8507B72F Copy CRC 8507B72F Cannot be verified as accurate (confidence 4) [0972CA08], AccurateRip returned [548E87E2] (AR v2) Copy OK
Track 17
Filename Z:\#Torrents\Eigene\#EAC default\Henry Mancini - Eight Classic Albums (2014) [FLAC]\CD1 - Peter Gunn & Mr Lucky\17 - Lightly Latin.wav
Peak level 81.8 % Extraction speed 4.0 X Track quality 100.0 % Test CRC 76C17E97 Copy CRC 76C17E97 Cannot be verified as accurate (confidence 4) [E77DC8D7], AccurateRip returned [1200978B] (AR v2) Copy OK
Track 18
Filename Z:\#Torrents\Eigene\#EAC default\Henry Mancini - Eight Classic Albums (2014) [FLAC]\CD1 - Peter Gunn & Mr Lucky\18 - Tipsy.wav
Peak level 71.3 % Extraction speed 4.0 X Track quality 100.0 % Test CRC 38128CEA Copy CRC 38128CEA Cannot be verified as accurate (confidence 4) [5A347DB1], AccurateRip returned [F52FB571] (AR v2) Copy OK
Track 19
Filename Z:\#Torrents\Eigene\#EAC default\Henry Mancini - Eight Classic Albums (2014) [FLAC]\CD1 - Peter Gunn & Mr Lucky\19 - Floating Pad.wav
Peak level 85.8 % Extraction speed 4.1 X Track quality 100.0 % Test CRC 53A482B1 Copy CRC 53A482B1 Cannot be verified as accurate (confidence 4) [4339F3F0], AccurateRip returned [A9D00B76] (AR v2) Copy OK
Track 20
Filename Z:\#Torrents\Eigene\#EAC default\Henry Mancini - Eight Classic Albums (2014) [FLAC]\CD1 - Peter Gunn & Mr Lucky\20 - One Eyed Cat.wav
Peak level 67.9 % Extraction speed 4.3 X Track quality 100.0 % Test CRC 3CAB9CCF Copy CRC 3CAB9CCF Cannot be verified as accurate (confidence 4) [9F936F45], AccurateRip returned [F45E5572] (AR v2) Copy OK
Track 21
Filename Z:\#Torrents\Eigene\#EAC default\Henry Mancini - Eight Classic Albums (2014) [FLAC]\CD1 - Peter Gunn & Mr Lucky\21 - Night Flower.wav
Peak level 72.9 % Extraction speed 4.2 X Track quality 100.0 % Test CRC 62558894 Copy CRC 62558894 Cannot be verified as accurate (confidence 4) [77BE6F89], AccurateRip returned [E0FF143E] (AR v2) Copy OK
Track 22
Filename Z:\#Torrents\Eigene\#EAC default\Henry Mancini - Eight Classic Albums (2014) [FLAC]\CD1 - Peter Gunn & Mr Lucky\22 - Chime Time.wav
Peak level 86.2 % Extraction speed 4.5 X Track quality 100.0 % Test CRC 0A7F6EC0 Copy CRC 0A7F6EC0 Cannot be verified as accurate (confidence 4) [37F1256E], AccurateRip returned [EF234911] (AR v2) Copy OK
Track 23
Filename Z:\#Torrents\Eigene\#EAC default\Henry Mancini - Eight Classic Albums (2014) [FLAC]\CD1 - Peter Gunn & Mr Lucky\23 - Blue Satin.wav
Peak level 77.5 % Extraction speed 4.4 X Track quality 100.0 % Test CRC 2E70DCFE Copy CRC 2E70DCFE Cannot be verified as accurate (confidence 4) [0FFBF384], AccurateRip returned [3B79A84D] (AR v2) Copy OK
Track 24
Filename Z:\#Torrents\Eigene\#EAC default\Henry Mancini - Eight Classic Albums (2014) [FLAC]\CD1 - Peter Gunn & Mr Lucky\24 - That's It And That's All.wav
Peak level 93.7 % Extraction speed 4.5 X Track quality 100.0 % Test CRC D31A5ED8 Copy CRC D31A5ED8 Cannot be verified as accurate (confidence 5) [7FF5AB3D], AccurateRip returned [092E6473] (AR v2) Copy OK
No tracks could be verified as accurateYou may have a different pressing from the one(s) in the database
No errors occurred
End of status report
---- CUETools DB Plugin V2.1.3
[CTDB TOCID: H9aBXi8BjbUIuW77coUaSjt60Y8-] found, Submit result: already submitted[7526347e] (6/6) Accurately ripped
==== Log checksum 5DA84DD4394E296B72C9F2DA5B9C1D8C8240434BDAB3F7163C28076E500E2D7A ====

Содержание индексной карты (.CUE)

REM GENRE JazzREM DATE 1959REM DISCID 55116618REM COMMENT "ExactAudioCopy v1.0b3"PERFORMER "Henry Mancini"TITLE "Peter Gunn & Mr Lucky"FILE "01 - Peter Gunn.wav" WAVE TRACK 01 AUDIO TITLE "Peter Gunn" PERFORMER "Henry Mancini" INDEX 01 00:00:00FILE "02 - Sorta Blues.wav" WAVE TRACK 02 AUDIO TITLE "Sorta Blues" PERFORMER "Henry Mancini" INDEX 01 00:00:00FILE "03 - The Brothers Go To Mother's.wav" WAVE TRACK 03 AUDIO TITLE "The Brothers Go To Mother's" PERFORMER "Henry Mancini" INDEX 01 00:00:00FILE "04 - Dreamsville.wav" WAVE TRACK 04 AUDIO TITLE "Dreamsville" PERFORMER "Henry Mancini" INDEX 01 00:00:00FILE "05 - Session At Pete's Pad.wav" WAVE TRACK 05 AUDIO TITLE "Session At Pete's Pad" PERFORMER "Henry Mancini" INDEX 01 00:00:00FILE "06 - Soft Sounds.wav" WAVE TRACK 06 AUDIO TITLE "Soft Sounds" PERFORMER "Henry Mancini" INDEX 01 00:00:00FILE "07 - Fallout.wav" WAVE TRACK 07 AUDIO TITLE "Fallout" PERFORMER "Henry Mancini" INDEX 01 00:00:00FILE "08 - The Floater.wav" WAVE TRACK 08 AUDIO TITLE "The Floater" PERFORMER "Henry Mancini" INDEX 01 00:00:00FILE "09 - Slow And Easy.wav" WAVE TRACK 09 AUDIO TITLE "Slow And Easy" PERFORMER "Henry Mancini" INDEX 01 00:00:00FILE "10 - A Profound Gass.wav" WAVE TRACK 10 AUDIO TITLE "A Profound Gass" PERFORMER "Henry Mancini" INDEX 01 00:00:00FILE "11 - Brief And Breezy.wav" WAVE TRACK 11 AUDIO TITLE "Brief And Breezy" PERFORMER "Henry Mancini" INDEX 01 00:00:00FILE "12 - Not From Dixie.wav" WAVE TRACK 12 AUDIO TITLE "Not From Dixie" PERFORMER "Henry Mancini" INDEX 01 00:00:00FILE "13 - Mr. Lucky.wav" WAVE TRACK 13 AUDIO TITLE "Mr. Lucky" PERFORMER "Henry Mancini" INDEX 01 00:00:00FILE "14 - My Friend Andamo.wav" WAVE TRACK 14 AUDIO TITLE "My Friend Andamo" PERFORMER "Henry Mancini" INDEX 01 00:00:00FILE "15 - Softly.wav" WAVE TRACK 15 AUDIO TITLE "Softly" PERFORMER "Henry Mancini" INDEX 01 00:00:00FILE "16 - March Of The Cue Balls.wav" WAVE TRACK 16 AUDIO TITLE "March Of The Cue Balls" PERFORMER "Henry Mancini" INDEX 01 00:00:00FILE "17 - Lightly Latin.wav" WAVE TRACK 17 AUDIO TITLE "Lightly Latin" PERFORMER "Henry Mancini" INDEX 01 00:00:00FILE "18 - Tipsy.wav" WAVE TRACK 18 AUDIO TITLE "Tipsy" PERFORMER "Henry Mancini" INDEX 01 00:00:00FILE "19 - Floating Pad.wav" WAVE TRACK 19 AUDIO TITLE "Floating Pad" PERFORMER "Henry Mancini" INDEX 01 00:00:00FILE "20 - One Eyed Cat.wav" WAVE TRACK 20 AUDIO TITLE "One Eyed Cat" PERFORMER "Henry Mancini" INDEX 01 00:00:00FILE "21 - Night Flower.wav" WAVE TRACK 21 AUDIO TITLE "Night Flower" PERFORMER "Henry Mancini" INDEX 01 00:00:00FILE "22 - Chime Time.wav" WAVE TRACK 22 AUDIO TITLE "Chime Time" PERFORMER "Henry Mancini" INDEX 01 00:00:00FILE "23 - Blue Satin.wav" WAVE TRACK 23 AUDIO TITLE "Blue Satin" PERFORMER "Henry Mancini" INDEX 01 00:00:00FILE "24 - That's It And That's All.wav" WAVE TRACK 24 AUDIO TITLE "That's It And That's All" PERFORMER "Henry Mancini" INDEX 01 00:00:00

CD 2 - High Time & The Blues And The Beat

Треклист:
High Time (1960)
01. High Time (2:21)
02. Moon Talk (2:33)
03. So Neat (3:11)
04. The Old College Try Cha Cha (2:36)
05. The Nutty Professor (1:49)
06. Frish Frosh (2:52)
07. The Second Time Around (2:50)
08. A Mild Blast (3:06)
09. Harv's Blues (3:10)
10. New Blood (2:46)
11. The Dean Speaks (2:36)
12. Tiger (2:15)
The Blues And The Beat (1960)
13. The Blues ( The Blues And The Beat - 1960) (2:40)
14. Smoke Rings (3:16)
15. Misty (3:35)
16. Blue Flame (2:44)
17. After Hours (3:06)
18. Mood Indigo (3:04)
19. The Beat (3:07)
20. Big Noise From Winnetka (2:38)
21. Alright, Okay, You Win (3:00)
22. Tippin' In (3:45)
23. How Could You Do A Thing Like That To Me (3:30)
24. Sing, Sing, Sing (3:11)
 

Лог создания рипа

Exact Audio Copy V1.0 beta 3 from 29. August 2011
EAC extraction logfile from 2. August 2015, 14:36
Henry Mancini / High Time & The Blues and the Beat
Used drive : PLEXTOR BD-R PX-B950SA Adapter: 3 ID: 0
Read mode : SecureUtilize accurate stream : YesDefeat audio cache : YesMake use of C2 pointers : No
Read offset correction : 6Overread into Lead-In and Lead-Out : NoFill up missing offset samples with silence : YesDelete leading and trailing silent blocks : NoNull samples used in CRC calculations : YesUsed interface : Native Win32 interface for Win NT & 2000Gap handling : Appended to previous track
Used output format : User Defined EncoderSelected bitrate : 1024 kBit/sQuality : HighAdd ID3 tag : NoCommand line compressor : C:\Program Files (x86)\Exact Audio Copy\Flac\flac.exeAdditional command line options : -8 -V -T "ARTIST=%artist%" -T "TITLE=%title%" -T "ALBUM=%albumtitle%" -T "DATE=%year%" -T "TRACKNUMBER=%tracknr%" -T "TOTALTRACKS=%numtracks%" -T "GENRE=%genre%" -T "ALBUMARTIST=%albumartist%" -T "ALBUM ARTIST=%albumartist%" -T "COMMENT=EAC Secure Mode, Test & Copy, AccurateRip, FLAC -8" %source%
TOC of the extracted CD
Track | Start | Length | Start sector | End sector --------------------------------------------------------- 1 | 0:00.00 | 2:21.23 | 0 | 10597 2 | 2:21.23 | 2:33.24 | 10598 | 22096 3 | 4:54.47 | 3:10.63 | 22097 | 36409 4 | 8:05.35 | 2:35.45 | 36410 | 48079 5 | 10:41.05 | 1:49.22 | 48080 | 56276 6 | 12:30.27 | 2:52.04 | 56277 | 69180 7 | 15:22.31 | 2:49.64 | 69181 | 81919 8 | 18:12.20 | 3:06.23 | 81920 | 95892 9 | 21:18.43 | 3:10.14 | 95893 | 110156 10 | 24:28.57 | 2:46.36 | 110157 | 122642 11 | 27:15.18 | 2:35.61 | 122643 | 134328 12 | 29:51.04 | 2:14.53 | 134329 | 144431 13 | 32:05.57 | 2:39.71 | 144432 | 156427 14 | 34:45.53 | 3:15.68 | 156428 | 171120 15 | 38:01.46 | 3:34.62 | 171121 | 187232 16 | 41:36.33 | 2:43.50 | 187233 | 199507 17 | 44:20.08 | 3:05.53 | 199508 | 213435 18 | 47:25.61 | 3:03.48 | 213436 | 227208 19 | 50:29.34 | 3:06.41 | 227209 | 241199 20 | 53:36.00 | 2:38.32 | 241200 | 253081 21 | 56:14.32 | 2:59.38 | 253082 | 266544 22 | 59:13.70 | 3:45.34 | 266545 | 283453 23 | 62:59.29 | 3:29.55 | 283454 | 299183 24 | 66:29.09 | 3:10.61 | 299184 | 313494
Track 1
Filename Z:\#Torrents\Eigene\#EAC default\Henry Mancini - Eight Classic Albums (2014) [FLAC]\CD2 - High Time & The Blues and the Beat\01 - High Time.wav
Pre-gap length 0:00:02.00
Peak level 95.5 % Extraction speed 2.0 X Track quality 100.0 % Test CRC D59E49F7 Copy CRC D59E49F7 Cannot be verified as accurate (confidence 7) [BA84FCD0], AccurateRip returned [9830315F] (AR v2) Copy OK
Track 2
Filename Z:\#Torrents\Eigene\#EAC default\Henry Mancini - Eight Classic Albums (2014) [FLAC]\CD2 - High Time & The Blues and the Beat\02 - Moon Talk.wav
Peak level 60.9 % Extraction speed 2.1 X Track quality 100.0 % Test CRC 077BC382 Copy CRC 077BC382 Cannot be verified as accurate (confidence 7) [3DF53B3A], AccurateRip returned [340F2E4F] (AR v2) Copy OK
Track 3
Filename Z:\#Torrents\Eigene\#EAC default\Henry Mancini - Eight Classic Albums (2014) [FLAC]\CD2 - High Time & The Blues and the Beat\03 - So Neat.wav
Peak level 81.7 % Extraction speed 2.4 X Track quality 100.0 % Test CRC 0A9818FB Copy CRC 0A9818FB Cannot be verified as accurate (confidence 7) [405C42D0], AccurateRip returned [D6DF3D41] (AR v2) Copy OK
Track 4
Filename Z:\#Torrents\Eigene\#EAC default\Henry Mancini - Eight Classic Albums (2014) [FLAC]\CD2 - High Time & The Blues and the Beat\04 - The Old College Try Cha Cha.wav
Peak level 91.4 % Extraction speed 2.4 X Track quality 100.0 % Test CRC 88711CD5 Copy CRC 88711CD5 Cannot be verified as accurate (confidence 7) [96E7DD17], AccurateRip returned [A92EC995] (AR v2) Copy OK
Track 5
Filename Z:\#Torrents\Eigene\#EAC default\Henry Mancini - Eight Classic Albums (2014) [FLAC]\CD2 - High Time & The Blues and the Beat\05 - The Nutty Professor.wav
Peak level 81.7 % Extraction speed 2.4 X Track quality 100.0 % Test CRC DEBCF18D Copy CRC DEBCF18D Cannot be verified as accurate (confidence 7) [7F7B3268], AccurateRip returned [5FAC3DB2] (AR v2) Copy OK
Track 6
Filename Z:\#Torrents\Eigene\#EAC default\Henry Mancini - Eight Classic Albums (2014) [FLAC]\CD2 - High Time & The Blues and the Beat\06 - Frish Frosh.wav
Peak level 75.9 % Extraction speed 2.7 X Track quality 100.0 % Test CRC 2DB06556 Copy CRC 2DB06556 Cannot be verified as accurate (confidence 7) [FB09150F], AccurateRip returned [A80B7D29] (AR v2) Copy OK
Track 7
Filename Z:\#Torrents\Eigene\#EAC default\Henry Mancini - Eight Classic Albums (2014) [FLAC]\CD2 - High Time & The Blues and the Beat\07 - The Second Time Around.wav
Peak level 66.8 % Extraction speed 2.8 X Track quality 100.0 % Test CRC 20E3E064 Copy CRC 20E3E064 Cannot be verified as accurate (confidence 7) [39807C30], AccurateRip returned [EF3611C7] (AR v2) Copy OK
Track 8
Filename Z:\#Torrents\Eigene\#EAC default\Henry Mancini - Eight Classic Albums (2014) [FLAC]\CD2 - High Time & The Blues and the Beat\08 - A Mild Blast.wav
Peak level 57.6 % Extraction speed 3.0 X Track quality 100.0 % Test CRC B80D71FC Copy CRC B80D71FC Cannot be verified as accurate (confidence 7) [AEE61374], AccurateRip returned [9A801D26] (AR v2) Copy OK
Track 9
Filename Z:\#Torrents\Eigene\#EAC default\Henry Mancini - Eight Classic Albums (2014) [FLAC]\CD2 - High Time & The Blues and the Beat\09 - Harv's Blues.wav
Peak level 71.6 % Extraction speed 3.1 X Track quality 100.0 % Test CRC C8536D6B Copy CRC C8536D6B Cannot be verified as accurate (confidence 7) [05123A51], AccurateRip returned [C040E331] (AR v2) Copy OK
Track 10
Filename Z:\#Torrents\Eigene\#EAC default\Henry Mancini - Eight Classic Albums (2014) [FLAC]\CD2 - High Time & The Blues and the Beat\10 - New Blood.wav
Peak level 67.5 % Extraction speed 3.1 X Track quality 100.0 % Test CRC 4E8246DA Copy CRC 4E8246DA Cannot be verified as accurate (confidence 7) [55F5B24E], AccurateRip returned [10FAEBB6] (AR v2) Copy OK
Track 11
Filename Z:\#Torrents\Eigene\#EAC default\Henry Mancini - Eight Classic Albums (2014) [FLAC]\CD2 - High Time & The Blues and the Beat\11 - The Dean Speaks.wav
Peak level 71.8 % Extraction speed 3.2 X Track quality 100.0 % Test CRC B544571B Copy CRC B544571B Cannot be verified as accurate (confidence 7) [98E34A48], AccurateRip returned [540F1812] (AR v2) Copy OK
Track 12
Filename Z:\#Torrents\Eigene\#EAC default\Henry Mancini - Eight Classic Albums (2014) [FLAC]\CD2 - High Time & The Blues and the Beat\12 - Tiger.wav
Peak level 76.7 % Extraction speed 3.2 X Track quality 100.0 % Test CRC 5449841B Copy CRC 5449841B Cannot be verified as accurate (confidence 7) [58936B57], AccurateRip returned [6B368089] (AR v2) Copy OK
Track 13
Filename Z:\#Torrents\Eigene\#EAC default\Henry Mancini - Eight Classic Albums (2014) [FLAC]\CD2 - High Time & The Blues and the Beat\13 - The Blues ( The Blues And The Beat - 1960).wav
Peak level 74.8 % Extraction speed 3.4 X Track quality 100.0 % Test CRC 4D35A494 Copy CRC 4D35A494 Cannot be verified as accurate (confidence 7) [2D2397A9], AccurateRip returned [146240B9] (AR v2) Copy OK
Track 14
Filename Z:\#Torrents\Eigene\#EAC default\Henry Mancini - Eight Classic Albums (2014) [FLAC]\CD2 - High Time & The Blues and the Beat\14 - Smoke Rings.wav
Peak level 100.0 % Extraction speed 3.6 X Track quality 100.0 % Test CRC C96ABEE3 Copy CRC C96ABEE3 Cannot be verified as accurate (confidence 7) [00608F7E], AccurateRip returned [02F23F84] (AR v2) Copy OK
Track 15
Filename Z:\#Torrents\Eigene\#EAC default\Henry Mancini - Eight Classic Albums (2014) [FLAC]\CD2 - High Time & The Blues and the Beat\15 - Misty.wav
Peak level 96.0 % Extraction speed 3.7 X Track quality 100.0 % Test CRC A8C54DF7 Copy CRC A8C54DF7 Cannot be verified as accurate (confidence 7) [A18AFE82], AccurateRip returned [537A9FD3] (AR v2) Copy OK
Track 16
Filename Z:\#Torrents\Eigene\#EAC default\Henry Mancini - Eight Classic Albums (2014) [FLAC]\CD2 - High Time & The Blues and the Beat\16 - Blue Flame.wav
Peak level 91.8 % Extraction speed 2.5 X Track quality 99.9 % Test CRC 0AE91666 Copy CRC 0AE91666 Cannot be verified as accurate (confidence 7) [E5F47268], AccurateRip returned [AF5138FE] (AR v2) Copy OK
Track 17
Filename Z:\#Torrents\Eigene\#EAC default\Henry Mancini - Eight Classic Albums (2014) [FLAC]\CD2 - High Time & The Blues and the Beat\17 - After Hours.wav
Peak level 93.0 % Extraction speed 3.9 X Track quality 100.0 % Test CRC DA7CC4BC Copy CRC DA7CC4BC Cannot be verified as accurate (confidence 7) [E6483833], AccurateRip returned [B574887D] (AR v2) Copy OK
Track 18
Filename Z:\#Torrents\Eigene\#EAC default\Henry Mancini - Eight Classic Albums (2014) [FLAC]\CD2 - High Time & The Blues and the Beat\18 - Mood Indigo.wav
Peak level 91.0 % Extraction speed 4.0 X Track quality 100.0 % Test CRC 68D4C91F Copy CRC 68D4C91F Cannot be verified as accurate (confidence 7) [E296E077], AccurateRip returned [61A6BE6D] (AR v2) Copy OK
Track 19
Filename Z:\#Torrents\Eigene\#EAC default\Henry Mancini - Eight Classic Albums (2014) [FLAC]\CD2 - High Time & The Blues and the Beat\19 - The Beat.wav
Peak level 98.5 % Extraction speed 2.8 X Track quality 99.9 % Test CRC 890E2504 Copy CRC 890E2504 Cannot be verified as accurate (confidence 7) [DFBB1EE5], AccurateRip returned [A55C69A4] (AR v2) Copy OK
Track 20
Filename Z:\#Torrents\Eigene\#EAC default\Henry Mancini - Eight Classic Albums (2014) [FLAC]\CD2 - High Time & The Blues and the Beat\20 - Big Noise From Winnetka.wav
Peak level 98.6 % Extraction speed 4.0 X Track quality 100.0 % Test CRC 6B1DF1FB Copy CRC 6B1DF1FB Cannot be verified as accurate (confidence 7) [424C8B42], AccurateRip returned [76D4D670] (AR v2) Copy OK
Track 21
Filename Z:\#Torrents\Eigene\#EAC default\Henry Mancini - Eight Classic Albums (2014) [FLAC]\CD2 - High Time & The Blues and the Beat\21 - Alright, Okay, You Win.wav
Peak level 98.1 % Extraction speed 4.2 X Track quality 100.0 % Test CRC DAFAB1AD Copy CRC DAFAB1AD Cannot be verified as accurate (confidence 7) [41ED1517], AccurateRip returned [D22AE99D] (AR v2) Copy OK
Track 22
Filename Z:\#Torrents\Eigene\#EAC default\Henry Mancini - Eight Classic Albums (2014) [FLAC]\CD2 - High Time & The Blues and the Beat\22 - Tippin' In.wav
Peak level 88.1 % Extraction speed 3.2 X Track quality 99.9 % Test CRC BCB44B0F Copy CRC BCB44B0F Cannot be verified as accurate (confidence 7) [DDEA0359], AccurateRip returned [41E98E29] (AR v2) Copy OK
Track 23
Filename Z:\#Torrents\Eigene\#EAC default\Henry Mancini - Eight Classic Albums (2014) [FLAC]\CD2 - High Time & The Blues and the Beat\23 - How Could You Do A Thing Like That To Me.wav
Peak level 95.1 % Extraction speed 4.5 X Track quality 100.0 % Test CRC 55A03B4E Copy CRC 55A03B4E Cannot be verified as accurate (confidence 7) [C780E8E3], AccurateRip returned [B84BF1C8] (AR v2) Copy OK
Track 24
Filename Z:\#Torrents\Eigene\#EAC default\Henry Mancini - Eight Classic Albums (2014) [FLAC]\CD2 - High Time & The Blues and the Beat\24 - Sing, Sing, Sing.wav
Peak level 94.9 % Extraction speed 4.5 X Track quality 100.0 % Test CRC 341BC9C7 Copy CRC 341BC9C7 Cannot be verified as accurate (confidence 7) [81FDB0A7], AccurateRip returned [8CEA06CB] (AR v2) Copy OK
No tracks could be verified as accurateYou may have a different pressing from the one(s) in the database
No errors occurred
End of status report
---- CUETools DB Plugin V2.1.3
[CTDB TOCID: AbK.u0Yj5TLxp27I7ysu8Olf2PQ-] found, Submit result: already submitted[e2add601] (6/6) Accurately ripped
==== Log checksum 2634B5667434999C760E418B8BB7D3CF0E2DAFD85161AFF19544D19237E6ADEF ====

Содержание индексной карты (.CUE)

REM GENRE JazzREM DATE 1960REM DISCID 75105318REM COMMENT "ExactAudioCopy v1.0b3"PERFORMER "Henry Mancini"TITLE "High Time & The Blues And The Beat"FILE "01 - High Time.wav" WAVE TRACK 01 AUDIO TITLE "High Time" PERFORMER "Henry Mancini" INDEX 01 00:00:00FILE "02 - Moon Talk.wav" WAVE TRACK 02 AUDIO TITLE "Moon Talk" PERFORMER "Henry Mancini" INDEX 01 00:00:00FILE "03 - So Neat.wav" WAVE TRACK 03 AUDIO TITLE "So Neat" PERFORMER "Henry Mancini" INDEX 01 00:00:00FILE "04 - The Old College Try Cha Cha.wav" WAVE TRACK 04 AUDIO TITLE "The Old College Try Cha Cha" PERFORMER "Henry Mancini" INDEX 01 00:00:00FILE "05 - The Nutty Professor.wav" WAVE TRACK 05 AUDIO TITLE "The Nutty Professor" PERFORMER "Henry Mancini" INDEX 01 00:00:00FILE "06 - Frish Frosh.wav" WAVE TRACK 06 AUDIO TITLE "Frish Frosh" PERFORMER "Henry Mancini" INDEX 01 00:00:00FILE "07 - The Second Time Around.wav" WAVE TRACK 07 AUDIO TITLE "The Second Time Around" PERFORMER "Henry Mancini" INDEX 01 00:00:00FILE "08 - A Mild Blast.wav" WAVE TRACK 08 AUDIO TITLE "A Mild Blast" PERFORMER "Henry Mancini" INDEX 01 00:00:00FILE "09 - Harv's Blues.wav" WAVE TRACK 09 AUDIO TITLE "Harv's Blues" PERFORMER "Henry Mancini" INDEX 01 00:00:00FILE "10 - New Blood.wav" WAVE TRACK 10 AUDIO TITLE "New Blood" PERFORMER "Henry Mancini" INDEX 01 00:00:00FILE "11 - The Dean Speaks.wav" WAVE TRACK 11 AUDIO TITLE "The Dean Speaks" PERFORMER "Henry Mancini" INDEX 01 00:00:00FILE "12 - Tiger.wav" WAVE TRACK 12 AUDIO TITLE "Tiger" PERFORMER "Henry Mancini" INDEX 01 00:00:00FILE "13 - The Blues ( The Blues And The Beat - 1960).wav" WAVE TRACK 13 AUDIO TITLE " The Blues ( The Blues And The Beat - 1960)" PERFORMER "Henry Mancini" INDEX 01 00:00:00FILE "14 - Smoke Rings.wav" WAVE TRACK 14 AUDIO TITLE "Smoke Rings" PERFORMER "Henry Mancini" INDEX 01 00:00:00FILE "15 - Misty.wav" WAVE TRACK 15 AUDIO TITLE "Misty" PERFORMER "Henry Mancini" INDEX 01 00:00:00FILE "16 - Blue Flame.wav" WAVE TRACK 16 AUDIO TITLE "Blue Flame" PERFORMER "Henry Mancini" INDEX 01 00:00:00FILE "17 - After Hours.wav" WAVE TRACK 17 AUDIO TITLE "After Hours" PERFORMER "Henry Mancini" INDEX 01 00:00:00FILE "18 - Mood Indigo.wav" WAVE TRACK 18 AUDIO TITLE "Mood Indigo" PERFORMER "Henry Mancini" INDEX 01 00:00:00FILE "19 - The Beat.wav" WAVE TRACK 19 AUDIO TITLE "The Beat" PERFORMER "Henry Mancini" INDEX 01 00:00:00FILE "20 - Big Noise From Winnetka.wav" WAVE TRACK 20 AUDIO TITLE "Big Noise From Winnetka" PERFORMER "Henry Mancini" INDEX 01 00:00:00FILE "21 - Alright, Okay, You Win.wav" WAVE TRACK 21 AUDIO TITLE "Alright, Okay, You Win" PERFORMER "Henry Mancini" INDEX 01 00:00:00FILE "22 - Tippin' In.wav" WAVE TRACK 22 AUDIO TITLE "Tippin' In" PERFORMER "Henry Mancini" INDEX 01 00:00:00FILE "23 - How Could You Do A Thing Like That To Me.wav" WAVE TRACK 23 AUDIO TITLE "How Could You Do A Thing Like That To Me" PERFORMER "Henry Mancini" INDEX 01 00:00:00FILE "24 - Sing, Sing, Sing.wav" WAVE TRACK 24 AUDIO TITLE "Sing, Sing, Sing" PERFORMER "Henry Mancini" INDEX 01 00:00:00

CD 3 - Mr. Lucky Goes Latin & Breakfast At Tifany's

Треклист:
Mr. Lucky Goes Latin (1961)
01. Mr. Lucky Goes Latin (2:14)
02. Lujon (2:38)
03. Tinpanola (2:06)
04. Rain Drops In Rio (2:45)
05. Siesta (2:50)
06. The Dancing Cat (2:59)
07. Cow Bells And Coffee Beans (3:03)
08. The Sound Of Silver (2:34)
09. Tango Americano (2:43)
10. No-Cal Sugar Loaf (2:06)
11. Blue Mantilla (2:31)
12. Speedy Gonzales (1:44)
Breakfast At Tifany's (1962)
13. Moon River (2:41)
14. Something For Cat (3:09)
15. Sally's Tomato (3:06)
16. Mr. Yunioshi (2:30)
17. The Big Blow Out (2:28)
18. Hub Caps And Tali Lights (2:30)
19. Breakfast At Tiffany's (2:46)
20. Latin Golightly (2:56)
21. Holly (3:20)
22. Loose Caboose (3:10)
23. The Big Heist (3:08)
24. Moon River Cha Cha (2:35)
 

Лог создания рипа

Exact Audio Copy V1.0 beta 3 from 29. August 2011
EAC extraction logfile from 2. August 2015, 15:36
Henry Mancini / Mr Lucky Goes Latin & Breakfast at Tifany's
Used drive : PLEXTOR BD-R PX-B950SA Adapter: 3 ID: 0
Read mode : SecureUtilize accurate stream : YesDefeat audio cache : YesMake use of C2 pointers : No
Read offset correction : 6Overread into Lead-In and Lead-Out : NoFill up missing offset samples with silence : YesDelete leading and trailing silent blocks : NoNull samples used in CRC calculations : YesUsed interface : Native Win32 interface for Win NT & 2000Gap handling : Appended to previous track
Used output format : User Defined EncoderSelected bitrate : 1024 kBit/sQuality : HighAdd ID3 tag : NoCommand line compressor : C:\Program Files (x86)\Exact Audio Copy\Flac\flac.exeAdditional command line options : -8 -V -T "ARTIST=%artist%" -T "TITLE=%title%" -T "ALBUM=%albumtitle%" -T "DATE=%year%" -T "TRACKNUMBER=%tracknr%" -T "TOTALTRACKS=%numtracks%" -T "GENRE=%genre%" -T "ALBUMARTIST=%albumartist%" -T "ALBUM ARTIST=%albumartist%" -T "COMMENT=EAC Secure Mode, Test & Copy, AccurateRip, FLAC -8" %source%
TOC of the extracted CD
Track | Start | Length | Start sector | End sector --------------------------------------------------------- 1 | 0:00.00 | 2:13.52 | 0 | 10026 2 | 2:13.52 | 2:37.65 | 10027 | 21866 3 | 4:51.42 | 2:06.25 | 21867 | 31341 4 | 6:57.67 | 2:45.36 | 31342 | 43752 5 | 9:43.28 | 2:49.46 | 43753 | 56473 6 | 12:32.74 | 2:58.47 | 56474 | 69870 7 | 15:31.46 | 3:02.54 | 69871 | 83574 8 | 18:34.25 | 2:33.53 | 83575 | 95102 9 | 21:08.03 | 2:43.02 | 95103 | 107329 10 | 23:51.05 | 2:05.55 | 107330 | 116759 11 | 25:56.60 | 2:30.69 | 116760 | 128078 12 | 28:27.54 | 1:44.13 | 128079 | 135891 13 | 30:11.67 | 2:40.62 | 135892 | 147953 14 | 32:52.54 | 3:09.06 | 147954 | 162134 15 | 36:01.60 | 3:06.31 | 162135 | 176115 16 | 39:08.16 | 2:29.68 | 176116 | 187358 17 | 41:38.09 | 2:27.38 | 187359 | 198421 18 | 44:05.47 | 2:29.44 | 198422 | 209640 19 | 46:35.16 | 2:45.64 | 209641 | 222079 20 | 49:21.05 | 2:56.06 | 222080 | 235285 21 | 52:17.11 | 3:20.37 | 235286 | 250322 22 | 55:37.48 | 3:09.40 | 250323 | 264537 23 | 58:47.13 | 3:07.43 | 264538 | 278605 24 | 61:54.56 | 2:35.30 | 278606 | 290260
Track 1
Filename Z:\#Torrents\Eigene\#EAC default\Henry Mancini - Eight Classic Albums (2014) [FLAC]\CD3 - Mr Lucky Goes Latin & Breakfast at Tifany's\01 - Mr.Lucky Goes Latin.wav
Pre-gap length 0:00:02.00
Peak level 91.1 % Extraction speed 1.8 X Track quality 100.0 % Test CRC DDD75FF5 Copy CRC DDD75FF5 Cannot be verified as accurate (confidence 5) [F3F845E5], AccurateRip returned [6D2A4E8F] (AR v2) Copy OK
Track 2
Filename Z:\#Torrents\Eigene\#EAC default\Henry Mancini - Eight Classic Albums (2014) [FLAC]\CD3 - Mr Lucky Goes Latin & Breakfast at Tifany's\02 - Lujon.wav
Peak level 83.0 % Extraction speed 2.0 X Track quality 100.0 % Test CRC C5BC184D Copy CRC C5BC184D Cannot be verified as accurate (confidence 5) [069C5DB1], AccurateRip returned [A15ACE75] (AR v2) Copy OK
Track 3
Filename Z:\#Torrents\Eigene\#EAC default\Henry Mancini - Eight Classic Albums (2014) [FLAC]\CD3 - Mr Lucky Goes Latin & Breakfast at Tifany's\03 - Tinpanola.wav
Peak level 99.8 % Extraction speed 2.1 X Track quality 100.0 % Test CRC DF8084C9 Copy CRC DF8084C9 Cannot be verified as accurate (confidence 5) [AF371496], AccurateRip returned [7577D18A] (AR v2) Copy OK
Track 4
Filename Z:\#Torrents\Eigene\#EAC default\Henry Mancini - Eight Classic Albums (2014) [FLAC]\CD3 - Mr Lucky Goes Latin & Breakfast at Tifany's\04 - Rain Drops In Rio.wav
Peak level 95.2 % Extraction speed 2.3 X Track quality 100.0 % Test CRC 8C06406C Copy CRC 8C06406C Cannot be verified as accurate (confidence 5) [748B86D4], AccurateRip returned [3C000A4A] (AR v2) Copy OK
Track 5
Filename Z:\#Torrents\Eigene\#EAC default\Henry Mancini - Eight Classic Albums (2014) [FLAC]\CD3 - Mr Lucky Goes Latin & Breakfast at Tifany's\05 - Siesta.wav
Peak level 94.1 % Extraction speed 1.6 X Track quality 99.9 % Test CRC 1874F949 Copy CRC 1874F949 Cannot be verified as accurate (confidence 5) [0137FE64], AccurateRip returned [16E49FDD] (AR v2) Copy OK
Track 6
Filename Z:\#Torrents\Eigene\#EAC default\Henry Mancini - Eight Classic Albums (2014) [FLAC]\CD3 - Mr Lucky Goes Latin & Breakfast at Tifany's\06 - The Dancing Cat.wav
Peak level 98.2 % Extraction speed 1.8 X Track quality 99.9 % Test CRC 6A5F446A Copy CRC 6A5F446A Cannot be verified as accurate (confidence 5) [C4D7B1D0], AccurateRip returned [8DAF48A3] (AR v2) Copy OK
Track 7
Filename Z:\#Torrents\Eigene\#EAC default\Henry Mancini - Eight Classic Albums (2014) [FLAC]\CD3 - Mr Lucky Goes Latin & Breakfast at Tifany's\07 - Cow Bells And Coffee Beans.wav
Peak level 99.9 % Extraction speed 2.7 X Track quality 100.0 % Test CRC B9D51011 Copy CRC B9D51011 Cannot be verified as accurate (confidence 5) [7B9D7A74], AccurateRip returned [81D0EC74] (AR v2) Copy OK
Track 8
Filename Z:\#Torrents\Eigene\#EAC default\Henry Mancini - Eight Classic Albums (2014) [FLAC]\CD3 - Mr Lucky Goes Latin & Breakfast at Tifany's\08 - The Sound Of Silver.wav
Peak level 85.6 % Extraction speed 1.8 X Track quality 99.9 % Test CRC 8A0DE905 Copy CRC 8A0DE905 Cannot be verified as accurate (confidence 5) [7449F1B1], AccurateRip returned [C7C2F3FB] (AR v2) Copy OK
Track 9
Filename Z:\#Torrents\Eigene\#EAC default\Henry Mancini - Eight Classic Albums (2014) [FLAC]\CD3 - Mr Lucky Goes Latin & Breakfast at Tifany's\09 - Tango Americano.wav
Peak level 100.0 % Extraction speed 1.9 X Track quality 99.9 % Test CRC A60A4A87 Copy CRC A60A4A87 Cannot be verified as accurate (confidence 5) [6B4AC90F], AccurateRip returned [AE9D162F] (AR v2) Copy OK
Track 10
Filename Z:\#Torrents\Eigene\#EAC default\Henry Mancini - Eight Classic Albums (2014) [FLAC]\CD3 - Mr Lucky Goes Latin & Breakfast at Tifany's\10 - No-Cal Sugar Loaf.wav
Peak level 99.5 % Extraction speed 2.8 X Track quality 100.0 % Test CRC 4D042FFD Copy CRC 4D042FFD Cannot be verified as accurate (confidence 5) [322462BD], AccurateRip returned [646ABD68] (AR v2) Copy OK
Track 11
Filename Z:\#Torrents\Eigene\#EAC default\Henry Mancini - Eight Classic Albums (2014) [FLAC]\CD3 - Mr Lucky Goes Latin & Breakfast at Tifany's\11 - Blue Mantilla.wav
Peak level 80.9 % Extraction speed 3.0 X Track quality 100.0 % Test CRC D89DEEC7 Copy CRC D89DEEC7 Cannot be verified as accurate (confidence 5) [4296516B], AccurateRip returned [9780B301] (AR v2) Copy OK
Track 12
Filename Z:\#Torrents\Eigene\#EAC default\Henry Mancini - Eight Classic Albums (2014) [FLAC]\CD3 - Mr Lucky Goes Latin & Breakfast at Tifany's\12 - Speedy Gonzales.wav
Peak level 95.5 % Extraction speed 2.8 X Track quality 100.0 % Test CRC BC389434 Copy CRC BC389434 Cannot be verified as accurate (confidence 5) [5EDB1B8E], AccurateRip returned [B11DACF6] (AR v2) Copy OK
Track 13
Filename Z:\#Torrents\Eigene\#EAC default\Henry Mancini - Eight Classic Albums (2014) [FLAC]\CD3 - Mr Lucky Goes Latin & Breakfast at Tifany's\13 - Moon River.wav
Peak level 99.8 % Extraction speed 3.1 X Track quality 100.0 % Test CRC 57627CBA Copy CRC 57627CBA Cannot be verified as accurate (confidence 4) [644BCAD7], AccurateRip returned [A299CEA2] (AR v2) Copy OK
Track 14
Filename Z:\#Torrents\Eigene\#EAC default\Henry Mancini - Eight Classic Albums (2014) [FLAC]\CD3 - Mr Lucky Goes Latin & Breakfast at Tifany's\14 - Something For Cat.wav
Peak level 88.4 % Extraction speed 3.3 X Track quality 100.0 % Test CRC 7D156EA1 Copy CRC 7D156EA1 Cannot be verified as accurate (confidence 4) [61DB2991], AccurateRip returned [76FA4739] (AR v2) Copy OK
Track 15
Filename Z:\#Torrents\Eigene\#EAC default\Henry Mancini - Eight Classic Albums (2014) [FLAC]\CD3 - Mr Lucky Goes Latin & Breakfast at Tifany's\15 - Sally's Tomato.wav
Peak level 100.0 % Extraction speed 3.4 X Track quality 100.0 % Test CRC 409EDEBA Copy CRC 409EDEBA Cannot be verified as accurate (confidence 4) [1A539B79], AccurateRip returned [4A603F42] (AR v2) Copy OK
Track 16
Filename Z:\#Torrents\Eigene\#EAC default\Henry Mancini - Eight Classic Albums (2014) [FLAC]\CD3 - Mr Lucky Goes Latin & Breakfast at Tifany's\16 - Mr. Yunioshi.wav
Peak level 100.0 % Extraction speed 3.4 X Track quality 100.0 % Test CRC C99D8C9F Copy CRC C99D8C9F Cannot be verified as accurate (confidence 4) [46D40F39], AccurateRip returned [39EDAA3A] (AR v2) Copy OK
Track 17
Filename Z:\#Torrents\Eigene\#EAC default\Henry Mancini - Eight Classic Albums (2014) [FLAC]\CD3 - Mr Lucky Goes Latin & Breakfast at Tifany's\17 - The Big Blow Out.wav
Peak level 100.0 % Extraction speed 3.4 X Track quality 100.0 % Test CRC F7B90FF0 Copy CRC F7B90FF0 Cannot be verified as accurate (confidence 4) [B8D2CEE1], AccurateRip returned [96B7B248] (AR v2) Copy OK
Track 18
Filename Z:\#Torrents\Eigene\#EAC default\Henry Mancini - Eight Classic Albums (2014) [FLAC]\CD3 - Mr Lucky Goes Latin & Breakfast at Tifany's\18 - Hub Caps And Tali Lights.wav
Peak level 97.5 % Extraction speed 3.5 X Track quality 100.0 % Test CRC 766F3B78 Copy CRC 766F3B78 Cannot be verified as accurate (confidence 4) [4F85D268], AccurateRip returned [8212F214] (AR v2) Copy OK
Track 19
Filename Z:\#Torrents\Eigene\#EAC default\Henry Mancini - Eight Classic Albums (2014) [FLAC]\CD3 - Mr Lucky Goes Latin & Breakfast at Tifany's\19 - Breakfast At Tiffany's.wav
Peak level 96.6 % Extraction speed 3.7 X Track quality 100.0 % Test CRC 35D3DF2B Copy CRC 35D3DF2B Cannot be verified as accurate (confidence 4) [E15B16F3], AccurateRip returned [C5A61E02] (AR v2) Copy OK
Track 20
Filename Z:\#Torrents\Eigene\#EAC default\Henry Mancini - Eight Classic Albums (2014) [FLAC]\CD3 - Mr Lucky Goes Latin & Breakfast at Tifany's\20 - Latin Golightly.wav
Peak level 100.0 % Extraction speed 3.8 X Track quality 100.0 % Test CRC 73B84D40 Copy CRC 73B84D40 Cannot be verified as accurate (confidence 4) [9689A891], AccurateRip returned [7795F60A] (AR v2) Copy OK
Track 21
Filename Z:\#Torrents\Eigene\#EAC default\Henry Mancini - Eight Classic Albums (2014) [FLAC]\CD3 - Mr Lucky Goes Latin & Breakfast at Tifany's\21 - Holly.wav
Peak level 100.0 % Extraction speed 2.8 X Track quality 99.9 % Test CRC DBA60020 Copy CRC DBA60020 Cannot be verified as accurate (confidence 4) [9C847BD8], AccurateRip returned [23D31FCC] (AR v2) Copy OK
Track 22
Filename Z:\#Torrents\Eigene\#EAC default\Henry Mancini - Eight Classic Albums (2014) [FLAC]\CD3 - Mr Lucky Goes Latin & Breakfast at Tifany's\22 - Loose Caboose.wav
Peak level 94.0 % Extraction speed 2.8 X Track quality 99.9 % Test CRC A99C1C83 Copy CRC A99C1C83 Cannot be verified as accurate (confidence 4) [A871D3B5], AccurateRip returned [1DFBB21B] (AR v2) Copy OK
Track 23
Filename Z:\#Torrents\Eigene\#EAC default\Henry Mancini - Eight Classic Albums (2014) [FLAC]\CD3 - Mr Lucky Goes Latin & Breakfast at Tifany's\23 - The Big Heist.wav
Peak level 98.6 % Extraction speed 2.8 X Track quality 99.9 % Test CRC F7AF2175 Copy CRC F7AF2175 Cannot be verified as accurate (confidence 4) [B70617BC], AccurateRip returned [826F7DE5] (AR v2) Copy OK
Track 24
Filename Z:\#Torrents\Eigene\#EAC default\Henry Mancini - Eight Classic Albums (2014) [FLAC]\CD3 - Mr Lucky Goes Latin & Breakfast at Tifany's\24 - Moon River Cha Cha.wav
Peak level 99.2 % Extraction speed 2.6 X Track quality 99.9 % Test CRC E06F85DA Copy CRC E06F85DA Cannot be verified as accurate (confidence 4) [A05C819F], AccurateRip returned [2E3F37F0] (AR v2) Copy OK
No tracks could be verified as accurateYou may have a different pressing from the one(s) in the database
No errors occurred
End of status report
---- CUETools DB Plugin V2.1.3
[CTDB TOCID: 3rsCh5B1z84QUa2aCwbklLpUzjk-] found, Submit result: already submitted[1caf7b04] (6/6) Accurately ripped
==== Log checksum 02A0FF5395B53F89A4E33A0AF75DEF8E01AEB928BBF98C48148640A10D52F09E ====

Содержание индексной карты (.CUE)

REM GENRE JazzREM DATE 2014REM DISCID 600F1E18REM COMMENT "ExactAudioCopy v1.0b3"PERFORMER "Henry Mancini"TITLE "Mr Lucky Goes Latin & Breakfast At Tifany's"FILE "01 - Mr.Lucky Goes Latin.wav" WAVE TRACK 01 AUDIO TITLE "Mr.Lucky Goes Latin" PERFORMER "Henry Mancini" INDEX 01 00:00:00FILE "02 - Lujon.wav" WAVE TRACK 02 AUDIO TITLE "Lujon" PERFORMER "Henry Mancini" INDEX 01 00:00:00FILE "03 - Tinpanola.wav" WAVE TRACK 03 AUDIO TITLE "Tinpanola" PERFORMER "Henry Mancini" INDEX 01 00:00:00FILE "04 - Rain Drops In Rio.wav" WAVE TRACK 04 AUDIO TITLE "Rain Drops In Rio" PERFORMER "Henry Mancini" INDEX 01 00:00:00FILE "05 - Siesta.wav" WAVE TRACK 05 AUDIO TITLE "Siesta" PERFORMER "Henry Mancini" INDEX 01 00:00:00FILE "06 - The Dancing Cat.wav" WAVE TRACK 06 AUDIO TITLE "The Dancing Cat" PERFORMER "Henry Mancini" INDEX 01 00:00:00FILE "07 - Cow Bells And Coffee Beans.wav" WAVE TRACK 07 AUDIO TITLE "Cow Bells And Coffee Beans" PERFORMER "Henry Mancini" INDEX 01 00:00:00FILE "08 - The Sound Of Silver.wav" WAVE TRACK 08 AUDIO TITLE "The Sound Of Silver" PERFORMER "Henry Mancini" INDEX 01 00:00:00FILE "09 - Tango Americano.wav" WAVE TRACK 09 AUDIO TITLE "Tango Americano" PERFORMER "Henry Mancini" INDEX 01 00:00:00FILE "10 - No-Cal Sugar Loaf.wav" WAVE TRACK 10 AUDIO TITLE "No-Cal Sugar Loaf" PERFORMER "Henry Mancini" INDEX 01 00:00:00FILE "11 - Blue Mantilla.wav" WAVE TRACK 11 AUDIO TITLE "Blue Mantilla" PERFORMER "Henry Mancini" INDEX 01 00:00:00FILE "12 - Speedy Gonzales.wav" WAVE TRACK 12 AUDIO TITLE "Speedy Gonzales" PERFORMER "Henry Mancini" INDEX 01 00:00:00FILE "13 - Moon River.wav" WAVE TRACK 13 AUDIO TITLE "Moon River" PERFORMER "Henry Mancini" INDEX 01 00:00:00FILE "14 - Something For Cat.wav" WAVE TRACK 14 AUDIO TITLE "Something For Cat" PERFORMER "Henry Mancini" INDEX 01 00:00:00FILE "15 - Sally's Tomato.wav" WAVE TRACK 15 AUDIO TITLE "Sally's Tomato" PERFORMER "Henry Mancini" INDEX 01 00:00:00FILE "16 - Mr. Yunioshi.wav" WAVE TRACK 16 AUDIO TITLE "Mr. Yunioshi" PERFORMER "Henry Mancini" INDEX 01 00:00:00FILE "17 - The Big Blow Out.wav" WAVE TRACK 17 AUDIO TITLE "The Big Blow Out" PERFORMER "Henry Mancini" INDEX 01 00:00:00FILE "18 - Hub Caps And Tali Lights.wav" WAVE TRACK 18 AUDIO TITLE "Hub Caps And Tali Lights" PERFORMER "Henry Mancini" INDEX 01 00:00:00FILE "19 - Breakfast At Tiffany's.wav" WAVE TRACK 19 AUDIO TITLE "Breakfast At Tiffany's" PERFORMER "Henry Mancini" INDEX 01 00:00:00FILE "20 - Latin Golightly.wav" WAVE TRACK 20 AUDIO TITLE "Latin Golightly" PERFORMER "Henry Mancini" INDEX 01 00:00:00FILE "21 - Holly.wav" WAVE TRACK 21 AUDIO TITLE "Holly" PERFORMER "Henry Mancini" INDEX 01 00:00:00FILE "22 - Loose Caboose.wav" WAVE TRACK 22 AUDIO TITLE "Loose Caboose" PERFORMER "Henry Mancini" INDEX 01 00:00:00FILE "23 - The Big Heist.wav" WAVE TRACK 23 AUDIO TITLE "The Big Heist" PERFORMER "Henry Mancini" INDEX 01 00:00:00FILE "24 - Moon River Cha Cha.wav" WAVE TRACK 24 AUDIO TITLE "Moon River Cha Cha" PERFORMER "Henry Mancini" INDEX 01 00:00:00

CD 4 - Experiment In Terror & Hatari

Треклист:
Experiment In Terror (1962)
01. Futters Ball (3:18)
02. Tooty Twist (2:06)
03. Kelly's Tune (3:16)
04. Golden Gate Twist (2:10)
05. The Good Old Days (2:00)
06. Experiment In Terror (Twist) (2:44)
07. Experiment In Terror (2:17)
08. Nancy (3:30)
09. Down By The Wharf (2:23)
10. Teen-Age Hostage (2:35)
11. White On White (2:07)
12. Final Out At Candlestick Park (3:00)
Hatari (1962)
13. Theme From Hatari (2:54)
14. Baby Elephant Walk (2:42)
15. Just For Tonight (2:02)
16. Your Father's Feathers (3:30)
17. Night Side (3:23)
18. Big Band Bwana (3:01)
19. The Sound Of Hatari (6:39)
20. The Soft Touch (2:42)
21. Crocodile, Go Home (2:54)
 

Лог создания рипа

Exact Audio Copy V1.0 beta 3 from 29. August 2011
EAC extraction logfile from 2. August 2015, 16:23
Henry Mancini / Experiment in Terror & Hatari
Used drive : PLEXTOR BD-R PX-B950SA Adapter: 3 ID: 0
Read mode : SecureUtilize accurate stream : YesDefeat audio cache : YesMake use of C2 pointers : No
Read offset correction : 6Overread into Lead-In and Lead-Out : NoFill up missing offset samples with silence : YesDelete leading and trailing silent blocks : NoNull samples used in CRC calculations : YesUsed interface : Native Win32 interface for Win NT & 2000Gap handling : Appended to previous track
Used output format : User Defined EncoderSelected bitrate : 1024 kBit/sQuality : HighAdd ID3 tag : NoCommand line compressor : C:\Program Files (x86)\Exact Audio Copy\Flac\flac.exeAdditional command line options : -8 -V -T "ARTIST=%artist%" -T "TITLE=%title%" -T "ALBUM=%albumtitle%" -T "DATE=%year%" -T "TRACKNUMBER=%tracknr%" -T "TOTALTRACKS=%numtracks%" -T "GENRE=%genre%" -T "ALBUMARTIST=%albumartist%" -T "ALBUM ARTIST=%albumartist%" -T "COMMENT=EAC Secure Mode, Test & Copy, AccurateRip, FLAC -8" %source%
TOC of the extracted CD
Track | Start | Length | Start sector | End sector --------------------------------------------------------- 1 | 0:00.00 | 3:18.04 | 0 | 14853 2 | 3:18.04 | 2:06.22 | 14854 | 24325 3 | 5:24.26 | 3:16.09 | 24326 | 39034 4 | 8:40.35 | 2:10.15 | 39035 | 48799 5 | 10:50.50 | 2:00.18 | 48800 | 57817 6 | 12:50.68 | 2:43.43 | 57818 | 70085 7 | 15:34.36 | 2:17.00 | 70086 | 80360 8 | 17:51.36 | 3:29.57 | 80361 | 96092 9 | 21:21.18 | 2:23.23 | 96093 | 106840 10 | 23:44.41 | 2:35.16 | 106841 | 118481 11 | 26:19.57 | 2:07.20 | 118482 | 128026 12 | 28:27.02 | 2:59.47 | 128027 | 141498 13 | 31:26.49 | 2:54.27 | 141499 | 154575 14 | 34:21.01 | 2:41.40 | 154576 | 166690 15 | 37:02.41 | 2:02.34 | 166691 | 175874 16 | 39:05.00 | 3:29.44 | 175875 | 191593 17 | 42:34.44 | 3:22.49 | 191594 | 206792 18 | 45:57.18 | 3:00.74 | 206793 | 220366 19 | 48:58.17 | 6:38.72 | 220367 | 250288 20 | 55:37.14 | 2:42.27 | 250289 | 262465 21 | 58:19.41 | 2:53.48 | 262466 | 275488
Track 1
Filename Z:\#Torrents\Eigene\#EAC default\Henry Mancini - Eight Classic Albums (2014) [FLAC]\CD4 - Experiment in Terror & Hatari\01 - Futters Ball.wav
Pre-gap length 0:00:02.00
Peak level 77.7 % Extraction speed 1.9 X Track quality 100.0 % Test CRC E9983F94 Copy CRC E9983F94 Cannot be verified as accurate (confidence 4) [8183A71B], AccurateRip returned [2301D08C] (AR v2) Copy OK
Track 2
Filename Z:\#Torrents\Eigene\#EAC default\Henry Mancini - Eight Classic Albums (2014) [FLAC]\CD4 - Experiment in Terror & Hatari\02 - Tooty Twist.wav
Peak level 85.1 % Extraction speed 1.9 X Track quality 100.0 % Test CRC 41206F07 Copy CRC 41206F07 Cannot be verified as accurate (confidence 4) [5DFF3F96], AccurateRip returned [3144B401] (AR v2) Copy OK
Track 3
Filename Z:\#Torrents\Eigene\#EAC default\Henry Mancini - Eight Classic Albums (2014) [FLAC]\CD4 - Experiment in Terror & Hatari\03 - Kelly's Tune.wav
Peak level 88.7 % Extraction speed 2.2 X Track quality 100.0 % Test CRC 3F62AA29 Copy CRC 3F62AA29 Cannot be verified as accurate (confidence 4) [D569479D], AccurateRip returned [98F51ACC] (AR v2) Copy OK
Track 4
Filename Z:\#Torrents\Eigene\#EAC default\Henry Mancini - Eight Classic Albums (2014) [FLAC]\CD4 - Experiment in Terror & Hatari\04 - Golden Gate Twist.wav
Peak level 87.1 % Extraction speed 2.1 X Track quality 100.0 % Test CRC 6C14D6F1 Copy CRC 6C14D6F1 Cannot be verified as accurate (confidence 4) [A75A8190], AccurateRip returned [94AC4A07] (AR v2) Copy OK
Track 5
Filename Z:\#Torrents\Eigene\#EAC default\Henry Mancini - Eight Classic Albums (2014) [FLAC]\CD4 - Experiment in Terror & Hatari\05 - The Good Old Days.wav
Peak level 99.0 % Extraction speed 2.1 X Track quality 100.0 % Test CRC 02A7501E Copy CRC 02A7501E Cannot be verified as accurate (confidence 4) [5E684E73], AccurateRip returned [F3D1BAA5] (AR v2) Copy OK
Track 6
Filename Z:\#Torrents\Eigene\#EAC default\Henry Mancini - Eight Classic Albums (2014) [FLAC]\CD4 - Experiment in Terror & Hatari\06 - Experiment In Terror (Twist).wav
Peak level 92.6 % Extraction speed 2.4 X Track quality 100.0 % Test CRC 059560E2 Copy CRC 059560E2 Cannot be verified as accurate (confidence 4) [2B608A88], AccurateRip returned [A0879AB4] (AR v2) Copy OK
Track 7
Filename Z:\#Torrents\Eigene\#EAC default\Henry Mancini - Eight Classic Albums (2014) [FLAC]\CD4 - Experiment in Terror & Hatari\07 - Experiment In Terror.wav
Peak level 79.6 % Extraction speed 2.4 X Track quality 100.0 % Test CRC C6C0F2C8 Copy CRC C6C0F2C8 Cannot be verified as accurate (confidence 4) [75E9F436], AccurateRip returned [8658C1D6] (AR v2) Copy OK
Track 8
Filename Z:\#Torrents\Eigene\#EAC default\Henry Mancini - Eight Classic Albums (2014) [FLAC]\CD4 - Experiment in Terror & Hatari\08 - Nancy.wav
Peak level 90.1 % Extraction speed 2.7 X Track quality 100.0 % Test CRC AE03C9DC Copy CRC AE03C9DC Cannot be verified as accurate (confidence 4) [1FDD5EF0], AccurateRip returned [E430DB9F] (AR v2) Copy OK
Track 9
Filename Z:\#Torrents\Eigene\#EAC default\Henry Mancini - Eight Classic Albums (2014) [FLAC]\CD4 - Experiment in Terror & Hatari\09 - Down By The Wharf.wav
Peak level 76.0 % Extraction speed 2.6 X Track quality 100.0 % Test CRC 9B5097FB Copy CRC 9B5097FB Cannot be verified as accurate (confidence 4) [4FC0B43A], AccurateRip returned [EDACD6C7] (AR v2) Copy OK
Track 10
Filename Z:\#Torrents\Eigene\#EAC default\Henry Mancini - Eight Classic Albums (2014) [FLAC]\CD4 - Experiment in Terror & Hatari\10 - Teen-Age Hostage.wav
Peak level 82.8 % Extraction speed 2.8 X Track quality 100.0 % Test CRC 5DE7C835 Copy CRC 5DE7C835 Cannot be verified as accurate (confidence 4) [A4B02601], AccurateRip returned [08917E90] (AR v2) Copy OK
Track 11
Filename Z:\#Torrents\Eigene\#EAC default\Henry Mancini - Eight Classic Albums (2014) [FLAC]\CD4 - Experiment in Terror & Hatari\11 - White On White.wav
Peak level 55.3 % Extraction speed 2.7 X Track quality 100.0 % Test CRC 44CEE054 Copy CRC 44CEE054 Cannot be verified as accurate (confidence 4) [0F63E36C], AccurateRip returned [C5F3AEAC] (AR v2) Copy OK
Track 12
Filename Z:\#Torrents\Eigene\#EAC default\Henry Mancini - Eight Classic Albums (2014) [FLAC]\CD4 - Experiment in Terror & Hatari\12 - Final Out At Candlestick Park.wav
Peak level 74.4 % Extraction speed 2.1 X Track quality 99.9 % Test CRC CB0DEEE0 Copy CRC CB0DEEE0 Cannot be verified as accurate (confidence 4) [BE99EC11], AccurateRip returned [E9DDD02A] (AR v2) Copy OK
Track 13
Filename Z:\#Torrents\Eigene\#EAC default\Henry Mancini - Eight Classic Albums (2014) [FLAC]\CD4 - Experiment in Terror & Hatari\13 - Theme From Hatari.wav
Peak level 91.1 % Extraction speed 3.1 X Track quality 100.0 % Test CRC A2CC34C2 Copy CRC A2CC34C2 Cannot be verified as accurate (confidence 4) [890A1571], AccurateRip returned [C044CA9D] (AR v2) Copy OK
Track 14
Filename Z:\#Torrents\Eigene\#EAC default\Henry Mancini - Eight Classic Albums (2014) [FLAC]\CD4 - Experiment in Terror & Hatari\14 - Baby Elephant Walk.wav
Peak level 85.1 % Extraction speed 3.1 X Track quality 100.0 % Test CRC BDB113B0 Copy CRC BDB113B0 Cannot be verified as accurate (confidence 4) [5537EFAD], AccurateRip returned [2E742101] (AR v2) Copy OK
Track 15
Filename Z:\#Torrents\Eigene\#EAC default\Henry Mancini - Eight Classic Albums (2014) [FLAC]\CD4 - Experiment in Terror & Hatari\15 - Just For Tonight.wav
Peak level 76.5 % Extraction speed 3.0 X Track quality 100.0 % Test CRC A4A80FAD Copy CRC A4A80FAD Cannot be verified as accurate (confidence 4) [A83D8222], AccurateRip returned [AA3808FF] (AR v2) Copy OK
Track 16
Filename Z:\#Torrents\Eigene\#EAC default\Henry Mancini - Eight Classic Albums (2014) [FLAC]\CD4 - Experiment in Terror & Hatari\16 - Your Father's Feathers.wav
Peak level 100.0 % Extraction speed 3.4 X Track quality 100.0 % Test CRC 80932EDC Copy CRC 80932EDC Cannot be verified as accurate (confidence 4) [A0686353], AccurateRip returned [8C1672A6] (AR v2) Copy OK
Track 17
Filename Z:\#Torrents\Eigene\#EAC default\Henry Mancini - Eight Classic Albums (2014) [FLAC]\CD4 - Experiment in Terror & Hatari\17 - Night Side.wav
Peak level 69.6 % Extraction speed 3.5 X Track quality 100.0 % Test CRC DDEFF910 Copy CRC DDEFF910 Cannot be verified as accurate (confidence 4) [01F79C36], AccurateRip returned [E5AF9B31] (AR v2) Copy OK
Track 18
Filename Z:\#Torrents\Eigene\#EAC default\Henry Mancini - Eight Classic Albums (2014) [FLAC]\CD4 - Experiment in Terror & Hatari\18 - Big Band Bwana.wav
Peak level 82.6 % Extraction speed 3.5 X Track quality 100.0 % Test CRC CDC9535C Copy CRC CDC9535C Cannot be verified as accurate (confidence 4) [BFE5787C], AccurateRip returned [7C496199] (AR v2) Copy OK
Track 19
Filename Z:\#Torrents\Eigene\#EAC default\Henry Mancini - Eight Classic Albums (2014) [FLAC]\CD4 - Experiment in Terror & Hatari\19 - The Sound Of Hatari.wav
Peak level 96.1 % Extraction speed 4.1 X Track quality 100.0 % Test CRC 6B01B08C Copy CRC 6B01B08C Cannot be verified as accurate (confidence 4) [13D21451], AccurateRip returned [EEC788F9] (AR v2) Copy OK
Track 20
Filename Z:\#Torrents\Eigene\#EAC default\Henry Mancini - Eight Classic Albums (2014) [FLAC]\CD4 - Experiment in Terror & Hatari\20 - The Soft Touch.wav
Peak level 48.6 % Extraction speed 2.5 X Track quality 99.9 % Test CRC A9139CF4 Copy CRC A9139CF4 Cannot be verified as accurate (confidence 4) [0B6A8C7E], AccurateRip returned [D64F264E] (AR v2) Copy OK
Track 21
Filename Z:\#Torrents\Eigene\#EAC default\Henry Mancini - Eight Classic Albums (2014) [FLAC]\CD4 - Experiment in Terror & Hatari\21 - Crocodile, Go Home.wav
Peak level 90.6 % Extraction speed 2.6 X Track quality 99.9 % Test CRC 8E4C69AA Copy CRC 8E4C69AA Cannot be verified as accurate (confidence 4) [E255700E], AccurateRip returned [1E5029F1] (AR v2) Copy OK
No tracks could be verified as accurateYou may have a different pressing from the one(s) in the database
No errors occurred
End of status report
---- CUETools DB Plugin V2.1.3
[CTDB TOCID: Ni9dG4RHP_neL.kuZkaPp0z1JEM-] found, Submit result: already submitted[1c60ccd1] (1/6) No match[5e772c64] (5/6) Accurately ripped
==== Log checksum ED36E1F6EBE94B41A9BA31024C2E303B7A2CAF5C706F01925226DE4AEF66ACEB ====

Содержание индексной карты (.CUE)

REM GENRE JazzREM DATE 2014REM DISCID 1F0E5915REM COMMENT "ExactAudioCopy v1.0b3"PERFORMER "Henry Mancini"TITLE "Experiment In Terror & Hatari"FILE "01 - Futters Ball.wav" WAVE TRACK 01 AUDIO TITLE "Futters Ball" PERFORMER "Henry Mancini" INDEX 01 00:00:00FILE "02 - Tooty Twist.wav" WAVE TRACK 02 AUDIO TITLE "Tooty Twist" PERFORMER "Henry Mancini" INDEX 01 00:00:00FILE "03 - Kelly's Tune.wav" WAVE TRACK 03 AUDIO TITLE "Kelly's Tune" PERFORMER "Henry Mancini" INDEX 01 00:00:00FILE "04 - Golden Gate Twist.wav" WAVE TRACK 04 AUDIO TITLE "Golden Gate Twist" PERFORMER "Henry Mancini" INDEX 01 00:00:00FILE "05 - The Good Old Days.wav" WAVE TRACK 05 AUDIO TITLE "The Good Old Days" PERFORMER "Henry Mancini" INDEX 01 00:00:00FILE "06 - Experiment In Terror (Twist).wav" WAVE TRACK 06 AUDIO TITLE "Experiment In Terror (Twist)" PERFORMER "Henry Mancini" INDEX 01 00:00:00FILE "07 - Experiment In Terror.wav" WAVE TRACK 07 AUDIO TITLE "Experiment In Terror" PERFORMER "Henry Mancini" INDEX 01 00:00:00FILE "08 - Nancy.wav" WAVE TRACK 08 AUDIO TITLE "Nancy" PERFORMER "Henry Mancini" INDEX 01 00:00:00FILE "09 - Down By The Wharf.wav" WAVE TRACK 09 AUDIO TITLE "Down By The Wharf" PERFORMER "Henry Mancini" INDEX 01 00:00:00FILE "10 - Teen-Age Hostage.wav" WAVE TRACK 10 AUDIO TITLE "Teen-Age Hostage" PERFORMER "Henry Mancini" INDEX 01 00:00:00FILE "11 - White On White.wav" WAVE TRACK 11 AUDIO TITLE "White On White" PERFORMER "Henry Mancini" INDEX 01 00:00:00FILE "12 - Final Out At Candlestick Park.wav" WAVE TRACK 12 AUDIO TITLE "Final Out At Candlestick Park" PERFORMER "Henry Mancini" INDEX 01 00:00:00FILE "13 - Theme From Hatari.wav" WAVE TRACK 13 AUDIO TITLE "Theme From Hatari" PERFORMER "Henry Mancini" INDEX 01 00:00:00FILE "14 - Baby Elephant Walk.wav" WAVE TRACK 14 AUDIO TITLE "Baby Elephant Walk" PERFORMER "Henry Mancini" INDEX 01 00:00:00FILE "15 - Just For Tonight.wav" WAVE TRACK 15 AUDIO TITLE "Just For Tonight" PERFORMER "Henry Mancini" INDEX 01 00:00:00FILE "16 - Your Father's Feathers.wav" WAVE TRACK 16 AUDIO TITLE "Your Father's Feathers" PERFORMER "Henry Mancini" INDEX 01 00:00:00FILE "17 - Night Side.wav" WAVE TRACK 17 AUDIO TITLE "Night Side" PERFORMER "Henry Mancini" INDEX 01 00:00:00FILE "18 - Big Band Bwana.wav" WAVE TRACK 18 AUDIO TITLE "Big Band Bwana" PERFORMER "Henry Mancini" INDEX 01 00:00:00FILE "19 - The Sound Of Hatari.wav" WAVE TRACK 19 AUDIO TITLE "The Sound Of Hatari" PERFORMER "Henry Mancini" INDEX 01 00:00:00FILE "20 - The Soft Touch.wav" WAVE TRACK 20 AUDIO TITLE "The Soft Touch" PERFORMER "Henry Mancini" INDEX 01 00:00:00FILE "21 - Crocodile, Go Home.wav" WAVE TRACK 21 AUDIO TITLE "Crocodile, Go Home" PERFORMER "Henry Mancini" INDEX 01 00:00:00
[teatrix.ru].t12295.torrent 
Торрент: Зарегистрирован [ 2015-12-20 13:15 ] · 5D74503D07B20EEC3CC6150F7036E62EB7085810

Скачать .torrent

Скачать

27 KB

Статус: проверено
Скачан: 1 раз
Размер: 1.55 GB
terms.php



Быстрый ответ

Имя:

      
Для отправки сообщений необходимо включить JavaScript
Показать сообщения:    

Текущее время: 04-Дек 19:15

Часовой пояс: UTC + 3


Вы можете начинать темы
Вы можете отвечать на сообщения
Вы не можете редактировать свои сообщения
Вы не можете удалять свои сообщения
Вы не можете голосовать в опросах
Вы не можете прикреплять файлы к сообщениям
Вы можете скачивать файлы