Адвечная песня / Извечная песня (Янка Купала) (Сергей Ковальчик) [2015, Folk Opera, DVB-AVC] [BLR] Республиканский театр белорусской драматургии


 

[Цитировать]

Адвечная песня / Извечная песня (Янка Купала)
Год выпуска: 2015
Страна-производитель: Республика Беларусь
Постановка: Республиканский театр белорусской драматургии
Жанр: Folk Opera
Продолжительность: 01:28:26
Язык: белорусский
Перевод: нет
Режиссер: Сергей Ковальчик
Исполнители:
Мужик - Игорь Сигов
Мать, Зима - Татьяна Мархель
Отец - Виктор Богушевич
Жена - Елена Боярова
Беда - Наталья Холодович
Доля - Галина Чернобаева
Голод, холод - Сергей Шимко
Весна - Анна Семеняко
Безногий солдат - Илья Ясинский
Лето - Анастасия Боброва
Колдунья - Людмила Сидоркевич
Осень - Белла Шпинер
Старший сын - Максим Пониматченко
Невестка - Вероника Буслаева
Солдаты - Никита Золотарь, Денис Паршин, Максим Шишко
Священник - Андрей Добровольский
Дети Мужика - Варвара Медикава, Мария Холодович
Крестьянки и крестьяне - артисты театра
Описание: Современная белорусская фолк-опера, которая представляет собой уникальный синтез народных мотивов и рок-музыки. Невероятный, захватывающий спектакль о жизни наших предков, о судьбе Человека от рождения и до смерти. Спектакль о тех, кто дал нам жизнь, силу, достоинство и веру, история о пути Белоруса под этим солнцем на этой земле...

Доп. информация:
Композитор: Тимур Калиновский
Сценография и костюмы: Владимир Тихонов
Балетмейстер: Тамара Федосеева
В восстановлении спектакля принимали участие:
Сценография: Юрий Соломонов
Художник по костюмам: Мария Герасимович
Балетмейстеры: Людмила Фадеева, Ефим Фадеев
Педагог по вокалу: Александра Сандлер
Аранжировка: Олег Хоменко и группа «Палац»
Призы и награды:
2013
VII Театральный фестиваль Международного Черноморского клуба «HOMO LUDENS» (г.Никалаев, Украина)
Гран-при «Золотой дельфин»
«Лучшая женская роль второго плана» - Белла Шпинер (за исполнение роли Осени).
По версии альтернативного (журналистского) жюри «Извечная песня» получила награды:
в номинации «Лучший спектакль»
диплом «За лучший актерский ансамбль»
2007
IX Международный театральный фестиваль «Голоса истории» (г. Вологда, Россия)
Гран-при фестиваля
2006
VIII Международный театральный фестиваль «Мельпомена Таврии» (г. Херсон, Украина)
диплом директора фестиваля актеру Игорю Сигову «За сценическое воплощение глубины славянской души»
диплом коллектива РТБД «За актерский ансамбль»
2006
Театральный конкурс ХИИИ ММКФ «Листопад» (г.Минск)
диплом актеру И. Сигову от «Народной газеты»
2003
«Славянские театральные встречи» (г. Гомель)
диплом лауреата в номинации «Лучший спектакль фестиваля»
Запись потока *.ts с наземного цифрового телеканала "Беларусь 3", ремукс в *.mkv программой VideoReDo.
Качество видео: DVB-AVC
Формат/Контейнер: MKV
Видео кодек: H.264
Аудио кодек: MP2
Видео поток: AVC (H264), 720x576 (4:3), 25 fps, 2 169 Kbps
Аудио поток: MP2, 256 kbps, 2 channels, 48 kHz

MediaInfo

GeneralUnique ID : 325881332608339982445472458449177134139 (0xF52A763093A39E5F2BE6659AF7E9C43B)Complete name : D:\Новая земля 2\Театр\Адвечная песня (2015)\Адвечная песня_2015.mkvFormat : MatroskaFormat version : Version 2File size : 1.53 GiBDuration : 1h 28mnOverall bit rate : 2 475 KbpsWriting application : Lavf52.64.2Writing library : Lavf52.64.2
VideoID : 1Format : AVCFormat/Info : Advanced Video CodecFormat profile : Main@L3.0Format settings, CABAC : YesFormat settings, ReFrames : 4 framesCodec ID : V_MPEG4/ISO/AVCDuration : 1h 28mnBit rate : 2 169 KbpsWidth : 720 pixelsHeight : 576 pixelsDisplay aspect ratio : 4:3Original display aspect ratio : 4:3Frame rate mode : ConstantFrame rate : 25.000 fpsStandard : PALColor space : YUVChroma subsampling : 4:2:0Bit depth : 8 bitsScan type : MBAFFScan order : Top Field FirstBits/(Pixel*Frame) : 0.209Stream size : 1.34 GiB (88%)Default : YesForced : NoColor primaries : BT.601 PALTransfer characteristics : BT.470 System B, BT.470 System GMatrix coefficients : BT.601Color range : Limited
AudioID : 2Format : MPEG AudioFormat version : Version 1Format profile : Layer 2Codec ID : A_MPEG/L2Codec ID/Hint : MP2Duration : 1h 28mnBit rate mode : ConstantBit rate : 256 KbpsChannel(s) : 2 channelsSampling rate : 48.0 KHzCompression mode : LossyStream size : 162 MiB (10%)Language : EnglishDefault : YesForced : No



Показать сообщения:    

Текущее время: 04-Дек 23:18

Часовой пояс: UTC + 3


Вы не можете начинать темы
Вы не можете отвечать на сообщения
Вы не можете редактировать свои сообщения
Вы не можете удалять свои сообщения
Вы не можете голосовать в опросах
Вы не можете прикреплять файлы к сообщениям
Вы не можете скачивать файлы