(Classical/Choral/Gregorian) The Monks of Norcia - Benedicta - 2015, FLAC (image+.cue) lossless


Статистика раздачи [Обновить пиров]
Размер:  241 MB   |    Зарегистрирован:  11 месяцев 19 дней   |    Скачан:  0 раз

Полного источника не было: Никогда

Личеров:  2  [  0 KB/s  ]   Подробная статистика пиров
 
   
 
 
 

[Цитировать]

The Monks of Norcia

Benedicta
Marian Chant from Norcia
-Жанр: Classical/Choral/Gregorian
Год издания диска: 2015
Издатель (лейбл): De Montfort Music
Аудиокодек: FLAC
Тип рипа: tracks+.cue
Битрейт аудио: lossless
Продолжительность: 01:04:52
Источник: sanet.me
Наличие сканов: нет
-
1. Bells from the Basilica
2. Sequence Ave Maria…virgo serena
3. Capitulum Dominus possedit me
4. Responsory Nihil Inquinatum
5. Antiphon Ait Dominus
6. Responsory Beatissimae
7. Antiphon Regali ex progenie
8. Responsory Solem justitiae
9. Capitulum Ecce virgo concipiet
10. Responsory Gaude Maria
11. Antiphon Gabriel Angelus
12. Responsory Sancta et immaculata
13. Antiphon Rubum quem viderat
14. Antiphon Alma Redemptoris Mater
15. Antiphon Tuam ipsius animam
16. Capitulum Cui comparabo te?
17. Responsory Vadis Propitiator
18. Antiphon Ave Regina Caelorum
19. Antiphon Laetare Virgo Mater
20. Antiphon Regina Caeli
21. Hymn Concordi laetitia
22. Capitulum Benedixit te
23. Responsory Vidi speciosam
24. Antiphon Virgo Prudentissima
25. Responsory Virgo parens Christi
26. Antiphon Sub tuum praesidium
27. Capitulum Ab initio
28. Responsory Ave Maria
29. Hymn O gloriosa Domina
30. Hymn Ave maris stella
31. Antiphon Nos qui Christi iugum
32. Antiphon Salve Regina
33. Benedicta
-Об альбоме:

Лог создания рипа

Exact Audio Copy V1.1 from 23. June 2015
EAC extraction logfile from 28. September 2015, 23:28
Monks of Norcia, The / Benedicta
Used drive : HL-DT-STDVD+-RW GT80N Adapter: 1 ID: 0
Read mode : Secure
Utilize accurate stream : Yes
Defeat audio cache : Yes
Make use of C2 pointers : No
Read offset correction : 102
Overread into Lead-In and Lead-Out : No
Fill up missing offset samples with silence : Yes
Delete leading and trailing silent blocks : No
Null samples used in CRC calculations : Yes
Used interface : Native Win32 interface for Win NT & 2000
Gap handling : Appended to previous track
Used output format : User Defined Encoder
Selected bitrate : 1024 kBit/s
Quality : High
Add ID3 tag : No
Command line compressor : C:\Program Files (x86)\Exact Audio Copy\Flac\flac.exe
Additional command line options : -8 -V -T "ARTIST=%artist%" -T "TITLE=%title%" -T "ALBUM=%albumtitle%" -T "DATE=%year%" -T "TRACKNUMBER=%tracknr%" -T "GENRE=%genre%" -T "PERFORMER=%albuminterpret%" -T "COMPOSER=%composer%" %haslyrics%--tag-from-file=LYRICS="%lyricsfile%"%haslyrics% -T "ALBUMARTIST=%albumartist%" -T "DISCNUMBER=%cdnumber%" -T "TOTALDISCS=%totalcds%" -T "TOTALTRACKS=%numtracks%" -T "COMMENT=%comment%" %source% -o %dest%
TOC of the extracted CD
Track | Start | Length | Start sector | End sector
---------------------------------------------------------
1 | 0:00.00 | 0:37.71 | 0 | 2845
2 | 0:37.71 | 4:42.57 | 2846 | 24052
3 | 5:20.53 | 0:36.49 | 24053 | 26801
4 | 5:57.27 | 4:27.40 | 26802 | 46866
5 | 10:24.67 | 0:54.08 | 46867 | 50924
6 | 11:19.00 | 3:43.14 | 50925 | 67663
7 | 15:02.14 | 0:45.18 | 67664 | 71056
8 | 15:47.32 | 4:38.67 | 71057 | 91973
9 | 20:26.24 | 0:31.73 | 91974 | 94371
10 | 20:58.22 | 2:51.70 | 94372 | 107266
11 | 23:50.17 | 0:44.05 | 107267 | 110571
12 | 24:34.22 | 3:43.38 | 110572 | 127334
13 | 28:17.60 | 0:40.62 | 127335 | 130396
14 | 28:58.47 | 1:58.04 | 130397 | 139250
15 | 30:56.51 | 0:28.20 | 139251 | 141370
16 | 31:24.71 | 0:39.71 | 141371 | 144366
17 | 32:04.67 | 4:29.15 | 144367 | 164556
18 | 36:34.07 | 1:44.14 | 164557 | 172370
19 | 38:18.21 | 0:34.28 | 172371 | 174948
20 | 38:52.49 | 1:52.20 | 174949 | 183368
21 | 40:44.69 | 2:09.56 | 183369 | 193099
22 | 42:54.50 | 0:34.17 | 193100 | 195666
23 | 43:28.67 | 4:48.60 | 195667 | 217326
24 | 48:17.52 | 1:05.22 | 217327 | 222223
25 | 49:22.74 | 2:50.34 | 222224 | 235007
26 | 52:13.33 | 0:59.49 | 235008 | 239481
27 | 53:13.07 | 0:28.36 | 239482 | 241617
28 | 53:41.43 | 1:26.15 | 241618 | 248082
29 | 55:07.58 | 2:06.51 | 248083 | 257583
30 | 57:14.34 | 2:22.04 | 257584 | 268237
31 | 59:36.38 | 1:37.44 | 268238 | 275556
32 | 61:14.07 | 2:59.35 | 275557 | 289016
33 | 64:13.42 | 0:38.45 | 289017 | 291911
Track 1
Filename F:\Classical\Medieval\Monks of Norcia - Benedicta (2015)[FLAC]\01 - Bells from the Basilica.wav
Pre-gap length 0:00:02.00
Peak level 4.2 %
Extraction speed 1.6 X
Track quality 100.0 %
Test CRC 99A3D71D
Copy CRC 99A3D71D
Track not present in AccurateRip database
Copy OK
Track 2
Filename F:\Classical\Medieval\Monks of Norcia - Benedicta (2015)[FLAC]\02 - Sequence Ave Maria. . .virgo serena.wav
Peak level 38.9 %
Extraction speed 3.1 X
Track quality 100.0 %
Test CRC 8F5ABCD9
Copy CRC 8F5ABCD9
Track not present in AccurateRip database
Copy OK
Track 3
Filename F:\Classical\Medieval\Monks of Norcia - Benedicta (2015)[FLAC]\03 - Capitulum Dominus possedit me.wav
Peak level 26.4 %
Extraction speed 1.8 X
Track quality 100.0 %
Test CRC 0BD69AFB
Copy CRC 0BD69AFB
Track not present in AccurateRip database
Copy OK
Track 4
Filename F:\Classical\Medieval\Monks of Norcia - Benedicta (2015)[FLAC]\04 - Responsory Nihil Iniquitam.wav
Peak level 31.1 %
Extraction speed 3.4 X
Track quality 100.0 %
Test CRC 581BD185
Copy CRC 581BD185
Track not present in AccurateRip database
Copy OK
Track 5
Filename F:\Classical\Medieval\Monks of Norcia - Benedicta (2015)[FLAC]\05 - Antiphon Ait Dominus.wav
Peak level 23.1 %
Extraction speed 1.4 X
Track quality 99.8 %
Test CRC 963FBA9E
Copy CRC 963FBA9E
Track not present in AccurateRip database
Copy OK
Track 6
Filename F:\Classical\Medieval\Monks of Norcia - Benedicta (2015)[FLAC]\06 - Responsory Beatissimae.wav
Peak level 35.4 %
Extraction speed 3.7 X
Track quality 100.0 %
Test CRC 8ED82DCA
Copy CRC 8ED82DCA
Track not present in AccurateRip database
Copy OK
Track 7
Filename F:\Classical\Medieval\Monks of Norcia - Benedicta (2015)[FLAC]\07 - Antiphon Regali ex progenio.wav
Peak level 26.6 %
Extraction speed 2.4 X
Track quality 100.0 %
Test CRC 250FACC3
Copy CRC 250FACC3
Track not present in AccurateRip database
Copy OK
Track 8
Filename F:\Classical\Medieval\Monks of Norcia - Benedicta (2015)[FLAC]\08 - Responsory Solem justitiae.wav
Peak level 58.5 %
Extraction speed 3.4 X
Track quality 99.9 %
Test CRC 25EFF1DE
Copy CRC 25EFF1DE
Track not present in AccurateRip database
Copy OK
Track 9
Filename F:\Classical\Medieval\Monks of Norcia - Benedicta (2015)[FLAC]\09 - Capitulum Ecce virgo concipiet.wav
Peak level 24.5 %
Extraction speed 2.2 X
Track quality 100.0 %
Test CRC 147FB36E
Copy CRC 147FB36E
Track not present in AccurateRip database
Copy OK
Track 10
Filename F:\Classical\Medieval\Monks of Norcia - Benedicta (2015)[FLAC]\10 - Responsory Gaude Maria.wav
Peak level 34.1 %
Extraction speed 3.9 X
Track quality 100.0 %
Test CRC 48BEDE6D
Copy CRC 48BEDE6D
Track not present in AccurateRip database
Copy OK
Track 11
Filename F:\Classical\Medieval\Monks of Norcia - Benedicta (2015)[FLAC]\11 - Antiphon Gabriel Angelus.wav
Peak level 33.2 %
Extraction speed 2.5 X
Track quality 100.0 %
Test CRC 2F155D57
Copy CRC 2F155D57
Track not present in AccurateRip database
Copy OK
Track 12
Filename F:\Classical\Medieval\Monks of Norcia - Benedicta (2015)[FLAC]\12 - Responsory Sancta et immaculata.wav
Peak level 22.8 %
Extraction speed 4.3 X
Track quality 100.0 %
Test CRC BFE9169C
Copy CRC BFE9169C
Track not present in AccurateRip database
Copy OK
Track 13
Filename F:\Classical\Medieval\Monks of Norcia - Benedicta (2015)[FLAC]\13 - Antiphon Rubum quem viderat.wav
Peak level 27.8 %
Extraction speed 1.4 X
Track quality 99.7 %
Test CRC 0358A161
Copy CRC 0358A161
Track not present in AccurateRip database
Copy OK
Track 14
Filename F:\Classical\Medieval\Monks of Norcia - Benedicta (2015)[FLAC]\14 - Antiphone Alma Redemptoris Mater.wav
Peak level 40.4 %
Extraction speed 3.7 X
Track quality 100.0 %
Test CRC BC0E9F1A
Copy CRC BC0E9F1A
Track not present in AccurateRip database
Copy OK
Track 15
Filename F:\Classical\Medieval\Monks of Norcia - Benedicta (2015)[FLAC]\15 - Antiphon Tuam ipsius animam.wav
Peak level 25.7 %
Extraction speed 2.1 X
Track quality 100.0 %
Test CRC 51AC860D
Copy CRC 51AC860D
Track not present in AccurateRip database
Copy OK
Track 16
Filename F:\Classical\Medieval\Monks of Norcia - Benedicta (2015)[FLAC]\16 - Capitulam Cui comparabo te.wav
Peak level 28.1 %
Extraction speed 2.6 X
Track quality 100.0 %
Test CRC 42B8E87E
Copy CRC 42B8E87E
Track not present in AccurateRip database
Copy OK
Track 17
Filename F:\Classical\Medieval\Monks of Norcia - Benedicta (2015)[FLAC]\17 - Responsory Vadis Propitiator.wav
Peak level 57.3 %
Extraction speed 4.2 X
Track quality 100.0 %
Test CRC DF11C5FD
Copy CRC DF11C5FD
Track not present in AccurateRip database
Copy OK
Track 18
Filename F:\Classical\Medieval\Monks of Norcia - Benedicta (2015)[FLAC]\18 - Antiphon Ave Regina Caelorum.wav
Peak level 53.7 %
Extraction speed 3.4 X
Track quality 100.0 %
Test CRC 389D1DE5
Copy CRC 389D1DE5
Track not present in AccurateRip database
Copy OK
Track 19
Filename F:\Classical\Medieval\Monks of Norcia - Benedicta (2015)[FLAC]\19 - Antiphon Laetare Virgo Mater.wav
Peak level 24.5 %
Extraction speed 2.1 X
Track quality 100.0 %
Test CRC 70B59431
Copy CRC 70B59431
Track not present in AccurateRip database
Copy OK
Track 20
Filename F:\Classical\Medieval\Monks of Norcia - Benedicta (2015)[FLAC]\20 - Antiphon Regina Caeli.wav
Peak level 41.3 %
Extraction speed 3.7 X
Track quality 100.0 %
Test CRC D1E71530
Copy CRC D1E71530
Track not present in AccurateRip database
Copy OK
Track 21
Filename F:\Classical\Medieval\Monks of Norcia - Benedicta (2015)[FLAC]\21 - Hymn Concordi laetitia.wav
Peak level 29.8 %
Extraction speed 3.7 X
Track quality 100.0 %
Test CRC 26386916
Copy CRC 26386916
Track not present in AccurateRip database
Copy OK
Track 22
Filename F:\Classical\Medieval\Monks of Norcia - Benedicta (2015)[FLAC]\22 - Capitulum Benedixit te.wav
Peak level 24.5 %
Extraction speed 2.3 X
Track quality 100.0 %
Test CRC 0A16F9B0
Copy CRC 0A16F9B0
Track not present in AccurateRip database
Copy OK
Track 23
Filename F:\Classical\Medieval\Monks of Norcia - Benedicta (2015)[FLAC]\23 - Responsory Vidi speciosam.wav
Peak level 33.0 %
Extraction speed 4.1 X
Track quality 99.9 %
Test CRC 42C33580
Copy CRC 42C33580
Track not present in AccurateRip database
Copy OK
Track 24
Filename F:\Classical\Medieval\Monks of Norcia - Benedicta (2015)[FLAC]\24 - Antiphon Virgo Prudentissima.wav
Peak level 30.6 %
Extraction speed 3.7 X
Track quality 100.0 %
Test CRC 502791E7
Copy CRC 502791E7
Track not present in AccurateRip database
Copy OK
Track 25
Filename F:\Classical\Medieval\Monks of Norcia - Benedicta (2015)[FLAC]\25 - Responsory Virgo parens Christi.wav
Peak level 39.8 %
Extraction speed 4.8 X
Track quality 100.0 %
Test CRC D76E61F0
Copy CRC D76E61F0
Track not present in AccurateRip database
Copy OK
Track 26
Filename F:\Classical\Medieval\Monks of Norcia - Benedicta (2015)[FLAC]\26 - Antiphon Sub tuum praesidium.wav
Peak level 23.8 %
Extraction speed 3.5 X
Track quality 100.0 %
Test CRC BC062DCF
Copy CRC BC062DCF
Track not present in AccurateRip database
Copy OK
Track 27
Filename F:\Classical\Medieval\Monks of Norcia - Benedicta (2015)[FLAC]\27 - Capitulum Ab initio.wav
Peak level 28.8 %
Extraction speed 2.3 X
Track quality 100.0 %
Test CRC 72ADABBE
Copy CRC 72ADABBE
Track not present in AccurateRip database
Copy OK
Track 28
Filename F:\Classical\Medieval\Monks of Norcia - Benedicta (2015)[FLAC]\28 - Responsory Ave Maria.wav
Peak level 25.7 %
Extraction speed 4.0 X
Track quality 100.0 %
Test CRC 3DC8FA84
Copy CRC 3DC8FA84
Track not present in AccurateRip database
Copy OK
Track 29
Filename F:\Classical\Medieval\Monks of Norcia - Benedicta (2015)[FLAC]\29 - Hymn O gloriosa Domina.wav
Peak level 32.7 %
Extraction speed 4.2 X
Track quality 100.0 %
Test CRC FEF91EDD
Copy CRC FEF91EDD
Track not present in AccurateRip database
Copy OK
Track 30
Filename F:\Classical\Medieval\Monks of Norcia - Benedicta (2015)[FLAC]\30 - Hymn Ave maris stella.wav
Peak level 22.4 %
Extraction speed 3.5 X
Track quality 99.9 %
Test CRC 7715F123
Copy CRC 7715F123
Track not present in AccurateRip database
Copy OK
Track 31
Filename F:\Classical\Medieval\Monks of Norcia - Benedicta (2015)[FLAC]\31 - Antiphon Nos qui Christi iugum.wav
Peak level 32.5 %
Extraction speed 2.9 X
Track quality 99.8 %
Test CRC 886C301E
Copy CRC 886C301E
Track not present in AccurateRip database
Copy OK
Track 32
Filename F:\Classical\Medieval\Monks of Norcia - Benedicta (2015)[FLAC]\32 - Antiphon Salve Regina.wav
Peak level 53.4 %
Extraction speed 5.1 X
Track quality 100.0 %
Test CRC 57FC0CB1
Copy CRC 57FC0CB1
Track not present in AccurateRip database
Copy OK
Track 33
Filename F:\Classical\Medieval\Monks of Norcia - Benedicta (2015)[FLAC]\33 - Benedicta.wav
Peak level 31.6 %
Extraction speed 3.2 X
Track quality 100.0 %
Test CRC 8BA63A3A
Copy CRC 8BA63A3A
Track not present in AccurateRip database
Copy OK
None of the tracks are present in the AccurateRip database
No errors occurred
End of status report
==== Log checksum 974FC577F8AD235BFAC5D329974FC579F6ED91EF0E1E243FA464542BDA41BD9C ====

Индексная карта

[pre]REM GENRE "Gregorian Chant"
REM DATE 2015
REM DISCID 080F3421
REM COMMENT "ExactAudioCopy v1.1"
CATALOG 0028948117338
PERFORMER "Monks of Norcia, The"
TITLE "Benedicta"
FILE "01 - Bells from the Basilica.wav" WAVE
TRACK 01 AUDIO
TITLE "Bells from the Basilica"
PERFORMER "Monks of Norcia, The"
ISRC QML6R1500162
INDEX 01 00:00:00
FILE "02 - Sequence Ave Maria. . .virgo serena.wav" WAVE
TRACK 02 AUDIO
TITLE "Sequence Ave Maria. . .virgo serena"
PERFORMER "Monks of Norcia, The"
ISRC QML6R1500130
INDEX 01 00:00:00
FILE "03 - Capitulum Dominus possedit me.wav" WAVE
TRACK 03 AUDIO
TITLE "Capitulum Dominus possedit me"
PERFORMER "Monks of Norcia, The"
ISRC QML6R1500131
INDEX 01 00:00:00
FILE "04 - Responsory Nihil Iniquitam.wav" WAVE
TRACK 04 AUDIO
TITLE "Responsory Nihil Iniquitam"
PERFORMER "Monks of Norcia, The"
ISRC QML6R1500132
INDEX 01 00:00:00
FILE "05 - Antiphon Ait Dominus.wav" WAVE
TRACK 05 AUDIO
TITLE "Antiphon Ait Dominus"
PERFORMER "Monks of Norcia, The"
ISRC QML6R1500133
INDEX 01 00:00:00
FILE "06 - Responsory Beatissimae.wav" WAVE
TRACK 06 AUDIO
TITLE "Responsory Beatissimae"
PERFORMER "Monks of Norcia, The"
ISRC QML6R1500134
INDEX 01 00:00:00
FILE "07 - Antiphon Regali ex progenio.wav" WAVE
TRACK 07 AUDIO
TITLE "Antiphon Regali ex progenio"
PERFORMER "Monks of Norcia, The"
ISRC QML6R1500135
INDEX 01 00:00:00
FILE "08 - Responsory Solem justitiae.wav" WAVE
TRACK 08 AUDIO
TITLE "Responsory Solem justitiae"
PERFORMER "Monks of Norcia, The"
ISRC QML6R1500136
INDEX 01 00:00:00
FILE "09 - Capitulum Ecce virgo concipiet.wav" WAVE
TRACK 09 AUDIO
TITLE "Capitulum Ecce virgo concipiet"
PERFORMER "Monks of Norcia, The"
ISRC QML6R1500137
INDEX 01 00:00:00
FILE "10 - Responsory Gaude Maria.wav" WAVE
TRACK 10 AUDIO
TITLE "Responsory Gaude Maria"
PERFORMER "Monks of Norcia, The"
ISRC QML6R1500138
INDEX 01 00:00:00
FILE "11 - Antiphon Gabriel Angelus.wav" WAVE
TRACK 11 AUDIO
TITLE "Antiphon Gabriel Angelus"
PERFORMER "Monks of Norcia, The"
ISRC QML6R1500139
INDEX 01 00:00:00
FILE "12 - Responsory Sancta et immaculata.wav" WAVE
TRACK 12 AUDIO
TITLE "Responsory Sancta et immaculata"
PERFORMER "Monks of Norcia, The"
ISRC QML6R1500139
INDEX 01 00:00:00
FILE "13 - Antiphon Rubum quem viderat.wav" WAVE
TRACK 13 AUDIO
TITLE "Antiphon Rubum quem viderat"
PERFORMER "Monks of Norcia, The"
ISRC QML6R1500141
INDEX 01 00:00:00
FILE "14 - Antiphone Alma Redemptoris Mater.wav" WAVE
TRACK 14 AUDIO
TITLE "Antiphone Alma Redemptoris Mater"
PERFORMER "Monks of Norcia, The"
ISRC QML6R1500142
INDEX 01 00:00:00
FILE "15 - Antiphon Tuam ipsius animam.wav" WAVE
TRACK 15 AUDIO
TITLE "Antiphon Tuam ipsius animam"
PERFORMER "Monks of Norcia, The"
ISRC QML6R1500143
INDEX 01 00:00:00
FILE "16 - Capitulam Cui comparabo te.wav" WAVE
TRACK 16 AUDIO
TITLE "Capitulam Cui comparabo te?"
PERFORMER "Monks of Norcia, The"
ISRC QML6R1500144
INDEX 01 00:00:00
FILE "17 - Responsory Vadis Propitiator.wav" WAVE
TRACK 17 AUDIO
TITLE "Responsory Vadis Propitiator"
PERFORMER "Monks of Norcia, The"
ISRC QML6R1500145
INDEX 01 00:00:00
FILE "18 - Antiphon Ave Regina Caelorum.wav" WAVE
TRACK 18 AUDIO
TITLE "Antiphon Ave Regina Caelorum"
PERFORMER "Monks of Norcia, The"
ISRC QML6R1500146
INDEX 01 00:00:00
FILE "19 - Antiphon Laetare Virgo Mater.wav" WAVE
TRACK 19 AUDIO
TITLE "Antiphon Laetare Virgo Mater"
PERFORMER "Monks of Norcia, The"
ISRC QML6R1500147
INDEX 01 00:00:00
FILE "20 - Antiphon Regina Caeli.wav" WAVE
TRACK 20 AUDIO
TITLE "Antiphon Regina Caeli"
PERFORMER "Monks of Norcia, The"
ISRC QML6R1500148
INDEX 01 00:00:00
FILE "21 - Hymn Concordi laetitia.wav" WAVE
TRACK 21 AUDIO
TITLE "Hymn Concordi laetitia"
PERFORMER "Monks of Norcia, The"
ISRC QML6R1500148
INDEX 01 00:00:00
FILE "22 - Capitulum Benedixit te.wav" WAVE
TRACK 22 AUDIO
TITLE "Capitulum Benedixit te"
PERFORMER "Monks of Norcia, The"
ISRC QML6R1500150
INDEX 01 00:00:00
FILE "23 - Responsory Vidi speciosam.wav" WAVE
TRACK 23 AUDIO
TITLE "Responsory Vidi speciosam"
PERFORMER "Monks of Norcia, The"
ISRC QML6R1500151
INDEX 01 00:00:00
FILE "24 - Antiphon Virgo Prudentissima.wav" WAVE
TRACK 24 AUDIO
TITLE "Antiphon Virgo Prudentissima"
PERFORMER "Monks of Norcia, The"
ISRC QML6R1500152
INDEX 01 00:00:00
FILE "25 - Responsory Virgo parens Christi.wav" WAVE
TRACK 25 AUDIO
TITLE "Responsory Virgo parens Christi"
PERFORMER "Monks of Norcia, The"
ISRC QML6R1500153
INDEX 01 00:00:00
FILE "26 - Antiphon Sub tuum praesidium.wav" WAVE
TRACK 26 AUDIO
TITLE "Antiphon Sub tuum praesidium"
PERFORMER "Monks of Norcia, The"
ISRC QML6R1500154
INDEX 01 00:00:00
FILE "27 - Capitulum Ab initio.wav" WAVE
TRACK 27 AUDIO
TITLE "Capitulum Ab initio"
PERFORMER "Monks of Norcia, The"
ISRC QML6R1500155
INDEX 01 00:00:00
FILE "28 - Responsory Ave Maria.wav" WAVE
TRACK 28 AUDIO
TITLE "Responsory Ave Maria"
PERFORMER "Monks of Norcia, The"
ISRC QML6R1500155
INDEX 01 00:00:00
FILE "29 - Hymn O gloriosa Domina.wav" WAVE
TRACK 29 AUDIO
TITLE "Hymn O gloriosa Domina"
PERFORMER "Monks of Norcia, The"
ISRC QML6R1500156
INDEX 01 00:00:00
FILE "30 - Hymn Ave maris stella.wav" WAVE
TRACK 30 AUDIO
TITLE "Hymn Ave maris stella"
PERFORMER "Monks of Norcia, The"
ISRC QML6R1500158
INDEX 01 00:00:00
FILE "31 - Antiphon Nos qui Christi iugum.wav" WAVE
TRACK 31 AUDIO
TITLE "Antiphon Nos qui Christi iugum"
PERFORMER "Monks of Norcia, The"
ISRC QML6R1500158
INDEX 01 00:00:00
FILE "32 - Antiphon Salve Regina.wav" WAVE
TRACK 32 AUDIO
TITLE "Antiphon Salve Regina"
PERFORMER "Monks of Norcia, The"
ISRC QML6R1500160
INDEX 01 00:00:00
FILE "33 - Benedicta.wav" WAVE
TRACK 33 AUDIO
TITLE "Benedicta"
PERFORMER "Monks of Norcia, The"
ISRC QML6R1500161
INDEX 01 00:00:00

Лог проверки качества

[pre]fooCDtect - foobar2000 + auCDtect, baralgin.
auCDtect: CD records authenticity detector, version 0.8.2
Copyright (c) 2004 Oleg Berngardt. All rights reserved.
Copyright (c) 2004 Alexander Djourik. All rights reserved.
mode: 0
===========================================
Track: 03. Capitulum Dominus possedit me
Quality: CDDA 43%
===========================================
Track: 01. Bells from the Basilica
Quality: CDDA 99%
===========================================
Track: 05. Antiphon Ait Dominus
Quality: CDDA 54%
===========================================
Track: 04. Responsory Nihil Iniquitam
Quality: MPEG 90%
===========================================
Track: 06. Responsory Beatissimae
Quality: MPEG 91%
===========================================
Track: 07. Antiphon Regali ex progenio
Quality: MPEG 92%
===========================================
Track: 08. Responsory Solem justitiae
Quality: MPEG 97%
===========================================
Track: 09. Capitulum Ecce virgo concipiet
Quality: CDDA 43%
===========================================
Track: 02. Sequence Ave Maria. . .virgo serena
Quality: MPEG 93%
===========================================
Track: 12. Responsory Sancta et immaculata
Quality: MPEG 80%
===========================================
Track: 11. Antiphon Gabriel Angelus
Quality: CDDA 92%
===========================================
Track: 10. Responsory Gaude Maria
Quality: MPEG 80%
===========================================
Track: 14. Antiphone Alma Redemptoris Mater
Quality: CDDA 49%
===========================================
Track: 16. Capitulam Cui comparabo te
Quality: CDDA 87%
===========================================
Track: 13. Antiphon Rubum quem viderat
Quality: CDDA 76%
===========================================
Track: 17. Responsory Vadis Propitiator
Quality: MPEG 93%
===========================================
Track: 19. Antiphon Laetare Virgo Mater
Quality: CDDA 42%
===========================================
Track: 20. Antiphon Regina Caeli
Quality: MPEG 93%
===========================================
Track: 18. Antiphon Ave Regina Caelorum
Quality: MPEG 80%
===========================================
Track: 21. Hymn Concordi laetitia
Quality: CDDA 54%
===========================================
Track: 22. Capitulum Benedixit te
Quality: MPEG 89%
===========================================
Track: 23. Responsory Vidi speciosam
Quality: MPEG 89%
===========================================
Track: 15. Antiphon Tuam ipsius animam
Quality: CDDA 100%
===========================================
Track: 25. Responsory Virgo parens Christi
Quality: MPEG 93%
===========================================
Track: 26. Antiphon Sub tuum praesidium
Quality: CDDA 42%
===========================================
Track: 27. Capitulum Ab initio
Quality: MPEG 93%
===========================================
Track: 28. Responsory Ave Maria
Quality: CDDA 43%
===========================================
Track: 29. Hymn O gloriosa Domina
Quality: CDDA 43%
===========================================
Track: 31. Antiphon Nos qui Christi iugum
Quality: CDDA 54%
===========================================
Track: 32. Antiphon Salve Regina
Quality: MPEG 80%
===========================================
Track: 33. Benedicta
Quality: CDDA 92%
===========================================
Track: 30. Hymn Ave maris stella
Quality: MPEG 93%
===========================================
Track: 24. Antiphon Virgo Prudentissima
Quality: MPEG 89%
===========================================

Скриншот спектра частот

Tracks 4, 9, 25
[teatrix.ru].t12306.torrent 
Торрент: Зарегистрирован [ 2015-12-20 23:50 ] · D022EEB5C763FC40DD0B14FCAC86A5B20439B237

Скачать .torrent

Скачать

22 KB

Статус: проверено
Скачан: 0 раз
Размер: 241 MB
terms.php



Быстрый ответ

Имя:

      
Для отправки сообщений необходимо включить JavaScript
Показать сообщения:    

Текущее время: 09-Дек 10:50

Часовой пояс: UTC + 3


Вы можете начинать темы
Вы можете отвечать на сообщения
Вы не можете редактировать свои сообщения
Вы не можете удалять свои сообщения
Вы не можете голосовать в опросах
Вы не можете прикреплять файлы к сообщениям
Вы можете скачивать файлы