Тайная диско-революция / The Secret Disco Revolution (Джейми Кастнер / Jamie Kastner) [2012, документальный, музыка, DVB] DVO (24 ДОК)


Статистика раздачи [Обновить пиров]
Размер:  1.7 GB   |    Зарегистрирован:  11 месяцев 13 дней   |    Скачан:  0 раз

Полного источника не было: Никогда

 
   
 
 
 

[Цитировать]

Тайная диско-революция
The Secret Disco Revolution- Дата/Год выпуска: 2012
Страна: Канада, Франция, США, ОАЭ, Великобритания
Жанр: документальный, музыка
Продолжительность: 01:22:22
Перевод: Профессиональный (двухголосый закадровый)
Доп. инфо о переводе: 24 ДОК
Русские субтитры: нет
Режиссер: Джейми Кастнер / Jamie Kastner
Телеканал: 24 ДОКОписание: Изобретательный полудок Джейми Кастнера по истории диско, рассказанной самими ее участниками и парой посторонних комментаторов (есть еще странная троица в золотых костюмах — они, кажется, ничего не говорят особенно, просто приходят в какую-нибудь декорацию и делают то, что легче всего описать словами "being cool"). Легкая культурологическая теория, иногда передергивающая практику зрителю на потеху. Кино складывается из рассказов, танцев, латекса и прочих деталей поп-культуры, к которым гладко подогнаны феминистские манифесты, подъем секс-меньшинств с колен и борьба за права черных женщин. "А что если участники диско-революции и сами не знали, что они в ней участвуют?" — подмигивает Кастнер и сталкивает кадры томно поющей на сцене Донны Саммер с комментариями серьезного вида лохматой женщины в очках, объясняющей, что песня "I Love to Love You Baby" — это протест женщин против трехминутного секса, и вот с такой-то точки зрения она и является настоящим поэтическим манифестом. (пресс-служба фестиваля 2morrow)
Доп. информация: DVB-S
Награды: номинация Sound & Vision Award - CPH:DOX 2012; номинация на премию Barbara Sears за лучшее визуальное решение Canadian Screen Awards 2015.

качество: DVB
формат: MKV
Видео: MPEG Video 2, 720x576@768x576 (4:3), 25 fps, ~2709 kbps avg, 0.261 bit/pixel
Аудио: MPEG Audio 2, 2 ch, 48 kHz, 192 kbps

MediaInfo

ОбщееУникальный идентификатор : 189086501142185607204397128468897611354 (0x8E40BC474C2DDB8FAE7F5AAE90E63E5A)Полное имя : F:\My Torrents 3\[apreder]The_Secret_Disco_Revolution(2012)DVB.mkvФормат : MatroskaВерсия формата : Version 2Размер файла : 1,70 ГбайтПродолжительность : 1 ч. 22 м.Режим общего битрейта : ПеременныйОбщий поток : 2960 Кбит/секНазвание фильма : The Secret Disco RevolutionДата выпуска : 2012-11-00Дата кодирования : UTC 2015-12-20 08:48:02Программа кодирования : mkvmerge v8.6.1 ('Flying') 64bitБиблиотека кодирования : libebml v1.3.3 + libmatroska v1.4.4Attachements : cover.jpg / cover_small.jpgDIRECTOR : Jamie KastnerGENRE : Documentary, Comedy, HistoryIMDB : tt2011271KEYWORDS : LAW_RATING : 12+
ВидеоИдентификатор : 1Формат : MPEG VideoВерсия формата : Version 2Профиль формата : Main@MainПараметр BVOP формата : ДаПараметр матрицы формата : ВыборочнаяПараметр GOP формата : M=3, N=36Format_Settings_PictureStructure : FrameИдентификатор кодека : V_MPEG2Идентификатор кодека/Информация : MPEG 1 or 2 VideoПродолжительность : 1 ч. 22 м.Вид битрейта : ПеременныйБитрейт : 2709 Кбит/секШирина : 720 пикселейВысота : 576 пикселейСоотношение сторон : 4:3Режим частоты кадров : ПостоянныйЧастота кадров : 25,000 кадров/секСтандарт вещания : PALЦветовое пространство : YUVСубдискретизация насыщенности : 4:2:0Битовая глубина : 8 битТип развёртки : ЧересстрочнаяПорядок развёртки : Верхнее поле первоеМетод сжатия : С потерямиБит/(Пиксели*Кадры) : 0.261Временной код первого кадра : 00:00:00:00Оригинал временного кода : Group of pictures headerРазмер потока : 1,56 Гбайт (92%)Default : ДаForced : Нет
АудиоИдентификатор : 2Формат : MPEG AudioВерсия формата : Version 1Профиль формата : Layer 2Идентификатор кодека : A_MPEG/L2Идентификатор кодека/Подсказка : MP2Продолжительность : 1 ч. 22 м.Вид битрейта : ПостоянныйБитрейт : 192 Кбит/секКаналы : 2 каналаЧастота : 48,0 КГцМетод сжатия : С потерямиРазмер потока : 113 Мбайт (6%)Язык : RussianDefault : ДаForced : Нет

Скриншоты


Резервные скриншоты


[teatrix.ru].t12309.torrent 
Торрент: Зарегистрирован [ 2015-12-20 23:50 ] · 04774C0113EFEB0DE1C77C42CB32BBFD8A81D8C4

Скачать .torrent

Скачать

18 KB

Статус: проверено
Скачан: 0 раз
Размер: 1.7 GB
terms.php



Быстрый ответ

Имя:

      
Для отправки сообщений необходимо включить JavaScript
Показать сообщения:    

Текущее время: 03-Дек 22:44

Часовой пояс: UTC + 3


Вы можете начинать темы
Вы можете отвечать на сообщения
Вы не можете редактировать свои сообщения
Вы не можете удалять свои сообщения
Вы не можете голосовать в опросах
Вы не можете прикреплять файлы к сообщениям
Вы можете скачивать файлы