(Classical, 20th century) Brundibar - Music by Composers in Theresienstadt (1941-1945): Krasa, Ullmann, Klein, Haas - The Nash Ensemble - 2013, FLAC (image+.cue) lossless


 

[Цитировать]

Brundibár - Music by Composers in Theresienstadt (1941-1945): Krasa, Ullmann, Klein, Haas - The Nash Ensemble
Жанр: Classical, 20th century
Страна-производитель диска: UK
Год издания диска: 2013
Издатель (лейбл): Hyperion
Номер по каталогу: CDA67973
Дата записи: 2012
Аудиокодек: FLAC
Тип рипа: image+.cue
Битрейт аудио: lossless
Продолжительность: 74:03
Источник: собственный рип
Наличие сканов в содержимом раздачи: да
Треклист:
Hans Krása (1899-1944)
arranged by David Matthews
[1]-[7] Suite from Brundibár
Viktor Ullmann (1898-1944)
[8]-[11] String Quartet No.3, Op.46
Gideon Klein (1919-1945)
[12]-[14] String Trio
Pavel Haas (1899-1944)
[15]-[18] String Quartet No.2, Op.7 'From the Monkey Mountains'
Исполнители:
The Nash Ensemble
Ian Brown piano ([1]-[3], [5]-[7])
Stephanie Gonley violin (all tracks)
Lawrence Power viola (all tracks)
Philippa Davies flute ([1]-[3], [5]-[7])
Mark David trumpet ([1]-[3], [5]-[7])
Laura Samuel violin ([1]-[11], [15]-[18])
Paul Watkins cello (all tracks)
Richard Hosford clarinet ([1]-[3], [5]-[7])
Chris Brannick percussion ([1], [3], [18])

Лог создания рипа

Exact Audio Copy V1.0 beta 3 from 29. August 2011
EAC extraction logfile from 23. April 2015, 1:27
The Nash Ensemble / Brundibar - Music by Composers in Theresienstadt
Used drive : HL-DT-STDVDRAM GU70N Adapter: 0 ID: 0
Read mode : SecureUtilize accurate stream : YesDefeat audio cache : YesMake use of C2 pointers : No
Read offset correction : 48Overread into Lead-In and Lead-Out : NoFill up missing offset samples with silence : YesDelete leading and trailing silent blocks : NoNull samples used in CRC calculations : YesUsed interface : Native Win32 interface for Win NT & 2000
Used output format : User Defined EncoderSelected bitrate : 128 kBit/sQuality : HighAdd ID3 tag : NoCommand line compressor : C:\Program Files (x86)\Exact Audio Copy\Flac\flac.exeAdditional command line options : -V -8 -T "Date=%year%" -T "Genre=%genre%" %source%
TOC of the extracted CD
Track | Start | Length | Start sector | End sector --------------------------------------------------------- 1 | 0:00.00 | 3:49.68 | 0 | 17242 2 | 3:49.68 | 1:28.04 | 17243 | 23846 3 | 5:17.72 | 5:31.15 | 23847 | 48686 4 | 10:49.12 | 1:52.11 | 48687 | 57097 5 | 12:41.23 | 1:59.13 | 57098 | 66035 6 | 14:40.36 | 2:00.39 | 66036 | 75074 7 | 16:41.00 | 1:37.15 | 75075 | 82364 8 | 18:18.15 | 4:07.74 | 82365 | 100963 9 | 22:26.14 | 3:29.19 | 100964 | 116657 10 | 25:55.33 | 3:49.34 | 116658 | 133866 11 | 29:44.67 | 2:21.02 | 133867 | 144443 12 | 32:05.69 | 2:05.22 | 144444 | 153840 13 | 34:11.16 | 6:37.40 | 153841 | 183655 14 | 40:48.56 | 3:07.16 | 183656 | 197696 15 | 43:55.72 | 9:39.38 | 197697 | 241159 16 | 53:35.35 | 4:32.57 | 241160 | 261616 17 | 58:08.17 | 7:45.40 | 261617 | 296531 18 | 65:53.57 | 8:07.69 | 296532 | 333125
Range status and errors
Selected range
Filename C:\temp\CDA67973 - Brundibar - Music by Composers in Theresienstadt (1941-1945)\CD\Brundibar - Music by Composers in Theresienstadt.wav
Peak level 95.5 % Extraction speed 2.2 X Range quality 100.0 % Test CRC 14876366 Copy CRC 14876366 Copy OK
No errors occurred
AccurateRip summary
Track 1 accurately ripped (confidence 1) [43B6FE01] (AR v2)Track 2 accurately ripped (confidence 1) [9AEC4EF5] (AR v2)Track 3 accurately ripped (confidence 1) [D8E09286] (AR v2)Track 4 accurately ripped (confidence 1) [8E0FB8BD] (AR v2)Track 5 accurately ripped (confidence 1) [8384183E] (AR v2)Track 6 accurately ripped (confidence 1) [45943205] (AR v2)Track 7 accurately ripped (confidence 1) [6735934F] (AR v2)Track 8 accurately ripped (confidence 1) [BC6684F2] (AR v2)Track 9 accurately ripped (confidence 1) [8CFFFA8C] (AR v2)Track 10 accurately ripped (confidence 1) [E1256745] (AR v2)Track 11 accurately ripped (confidence 1) [471FF8EB] (AR v2)Track 12 accurately ripped (confidence 1) [BE9B2ECE] (AR v2)Track 13 accurately ripped (confidence 1) [1D688D48] (AR v2)Track 14 accurately ripped (confidence 1) [D00128A7] (AR v2)Track 15 accurately ripped (confidence 1) [245A0060] (AR v2)Track 16 accurately ripped (confidence 1) [27D7DB1F] (AR v2)Track 17 accurately ripped (confidence 1) [6077BADB] (AR v2)Track 18 accurately ripped (confidence 1) [0FB90871] (AR v2)
All tracks accurately ripped
End of status report
==== Log checksum BF9503671B8A082FD20DC45FFDF8350D1C85E67E06DF813D7B540CDEE3806D53 ====



Показать сообщения:    

Текущее время: 05-Дек 23:32

Часовой пояс: UTC + 3


Вы не можете начинать темы
Вы не можете отвечать на сообщения
Вы не можете редактировать свои сообщения
Вы не можете удалять свои сообщения
Вы не можете голосовать в опросах
Вы не можете прикреплять файлы к сообщениям
Вы не можете скачивать файлы