(Soundtrack) Пираты Карибского моря: На краю Света / Pirates of the Caribbean: At World’s End (Пираты Карибского моря: На краю Света) (Ханс Циммер) - 2007, FLAC (tracks), lossless


Статистика раздачи [Обновить пиров]
Размер:  289 MB   |    Зарегистрирован:  11 месяцев 13 дней   |    Скачан:  1 раз

Полного источника не было: 11 часов

Личеров:  2  [  0 KB/s  ]   Подробная статистика пиров
 
   
 
 
 

[Цитировать]

Пираты Карибского моря: На краю Света / Pirates of the Caribbean: At World’s End
Название альбома: Пираты Карибского моря: На краю Света
Жанр: Soundtrack
Композитор: Ханс Циммер
Год выпуска диска: 2007
Страна-производитель диска: Россия
Издатель (лейбл): GALA Records Inc.
Аудиокодек: FLAC (*.flac)
Тип рипа: tracks
Битрейт аудио: lossless
Продолжительность: 00:55:57
Источник: собственный рип
Наличие сканов в содержимом раздачи: нет
Треклист:
01 Hoist The Colours
02 Singapore
03 At Wit's End
04 Multiple Jacks
05 Up Is Down
06 I See Dead People In Boats
07 The Brethren Court
08 Parlay
09 Calypso
10 What Shall We Die For
11 I Don't Think Now Is The Best Time
12 One Day
13 Drink Up Me Hearties

Лог создания рипа

Exact Audio Copy V1.1 from 23. June 2015
Отчёт EAC об извлечении, выполненном 20. декабря 2015, 12:56
Hans Zimmer / Pirates Of The Caribbean: At World's End (Soundtrack)
Дисковод: MATSHITABD-MLT UJ240AS Adapter: 1 ID: 0
Режим чтения : ДостоверностьИспользование точного потока : ДаОтключение кэша аудио : ДаИспользование указателей C2 : Да
Комбинированное смещение чтения/записи : 0Способность читать области Lead-in и Lead-out : НетЗаполнение пропущенных сэмплов тишиной : ДаУдаление блоков с тишиной в начале и конце : НетПри вычислениях CRC использовались нулевые сэмплы : ДаИнтерфейс : Встроенный Win32-интерфейс для Win NT/2000Обработка зазоров : Не обнаружено, добавлено к предыдущему треку
Выходной формат : Пользовательский кодировщикВыбранный битрейт : 1024 kBit/sКачество : ВысокийДобавление ID3-тега : НетУтилита сжатия : D:\Program Files (x86)\Exact Audio Copy\FLAC\FLAC.EXEДополнительные параметры : -8 -V -T "ARTIST=%artist%" -T "TITLE=%title%" -T "ALBUM=%albumtitle%" -T "DATE=%year%" -T "TRACKNUMBER=%tracknr%" -T "GENRE=%genre%" -T "COMMENT=%comment%" -T "BAND=%albuminterpret%" -T "ALBUMARTIST=%albuminterpret%" -T "COMPOSER=%composer%" %haslyrics%--tag-from-file=LYRICS="%lyricsfile%"%haslyrics% -T "DISCNUMBER=%cdnumber%" -T "TOTALDISCS=%totalcds%" -T "TOTALTRACKS=%numtracks%" %hascover%--picture="%coverfile%"%hascover% %source% -o %dest%
TOC извлечённого CD
Трек | Старт | Длительность | Начальный сектор | Конечный сектор --------------------------------------------------------------------- 1 | 0:00.00 | 1:31.06 | 0 | 6830 2 | 1:31.06 | 3:40.65 | 6831 | 23395 3 | 5:11.71 | 8:05.68 | 23396 | 59838 4 | 13:17.64 | 3:51.63 | 59839 | 77226 5 | 17:09.52 | 2:42.15 | 77227 | 89391 6 | 19:51.67 | 7:09.14 | 89392 | 121580 7 | 27:01.06 | 2:21.11 | 121581 | 132166 8 | 29:22.17 | 2:10.27 | 132167 | 141943 9 | 31:32.44 | 3:02.63 | 141944 | 155656 10 | 34:35.32 | 2:02.59 | 155657 | 164865 11 | 36:38.16 | 10:45.37 | 164866 | 213277 12 | 47:23.53 | 4:01.42 | 213278 | 231394 13 | 51:25.20 | 4:31.66 | 231395 | 251785
Трек 1
Имя файла D:\uTorrent\Новая папка\01 Hoist The Colours.wav
Пиковый уровень 87.9 % Скорость извлечения 2.5 X Качество трека 100.0 % CRC копии 5A80440B Копирование... OK
Трек 2
Имя файла D:\uTorrent\Новая папка\02 Singapore.wav
Пиковый уровень 98.7 % Скорость извлечения 3.0 X Качество трека 99.9 % CRC копии 0E4C51FD Копирование... OK
Трек 3
Имя файла D:\uTorrent\Новая папка\03 At Wit's End.wav
Пиковый уровень 99.8 % Скорость извлечения 4.6 X Качество трека 100.0 % CRC копии 0DD72B1A Копирование... OK
Трек 4
Имя файла D:\uTorrent\Новая папка\04 Multiple Jacks.wav
Пиковый уровень 98.7 % Скорость извлечения 4.6 X Качество трека 100.0 % CRC копии 568765D4 Копирование... OK
Трек 5
Имя файла D:\uTorrent\Новая папка\05 Up Is Down.wav
Пиковый уровень 99.8 % Скорость извлечения 3.6 X Качество трека 99.8 % CRC копии B782C521 Копирование... OK
Трек 6
Имя файла D:\uTorrent\Новая папка\06 I See Dead People In Boats.wav
Пиковый уровень 99.8 % Скорость извлечения 5.7 X Качество трека 100.0 % CRC копии E6C75B83 Копирование... OK
Трек 7
Имя файла D:\uTorrent\Новая папка\07 The Brethren Court.wav
Пиковый уровень 54.2 % Скорость извлечения 3.8 X Качество трека 99.8 % CRC копии 847DAA15 Копирование... OK
Трек 8
Имя файла D:\uTorrent\Новая папка\08 Parlay.wav
Пиковый уровень 99.8 % Скорость извлечения 3.7 X Качество трека 99.8 % CRC копии 08BD4038 Копирование... OK
Трек 9
Имя файла D:\uTorrent\Новая папка\09 Calypso.wav
Пиковый уровень 94.2 % Скорость извлечения 5.4 X Качество трека 100.0 % CRC копии CABD8737 Копирование... OK
Трек 10
Имя файла D:\uTorrent\Новая папка\10 What Shall We Die For.wav
Пиковый уровень 99.8 % Скорость извлечения 5.0 X Качество трека 100.0 % CRC копии A4BB6738 Копирование... OK
Трек 11
Имя файла D:\uTorrent\Новая папка\11 I Don't Think Now Is The Best Time.wav
Пиковый уровень 99.8 % Скорость извлечения 7.1 X Качество трека 100.0 % CRC копии 2672DD45 Копирование... OK
Трек 12
Имя файла D:\uTorrent\Новая папка\12 One Day.wav
Пиковый уровень 98.7 % Скорость извлечения 5.6 X Качество трека 99.9 % CRC копии EFF1D382 Копирование... OK
Трек 13
Имя файла D:\uTorrent\Новая папка\13 Drink Up Me Hearties.wav
Пиковый уровень 98.7 % Скорость извлечения 7.0 X Качество трека 100.0 % CRC копии A5DEB13D Копирование... OK
Ошибок не произошло
Конец отчёта

Cканы



Для тех кто не верит, что это издание было сделано в России

Об альбоме (сборнике)

«Пираты Карибского моря: На краю света» — саундтрек от Walt Disney Records к одноимённому фильму. Композитор — Ханс Циммер (а также Лорн Бэлф, Том Гир, Ник Гленни-Смит, Генри Джекман, Атли Эрварссон, Джон Спонслер и Джефф Занелли. Издан в в 2007 году.(wiki)
P.S. раздача 24/7
[teatrix.ru].t12312.torrent 
Торрент: Зарегистрирован [ 2015-12-20 23:50 ] · 1DC0FE3479ADB599CCA07F6B46858EFDBD0210D0

Скачать .torrent

Скачать

13 KB

Статус: проверено
Скачан: 1 раз
Размер: 289 MB
terms.php



Быстрый ответ

Имя:

      
Для отправки сообщений необходимо включить JavaScript
Показать сообщения:    

Текущее время: 03-Дек 07:34

Часовой пояс: UTC + 3


Вы можете начинать темы
Вы можете отвечать на сообщения
Вы не можете редактировать свои сообщения
Вы не можете удалять свои сообщения
Вы не можете голосовать в опросах
Вы не можете прикреплять файлы к сообщениям
Вы можете скачивать файлы