Олтмен / Altman (Рон Манн / Ron Mann) [2014, документальный, биографический, DVB] MVO (SDI Media)


Статистика раздачи [Обновить пиров]
Размер:  1.49 GB   |    Зарегистрирован:  11 месяцев 14 дней   |    Скачан:  0 раз

Полного источника не было: Никогда

Личеров:  3  [  0 KB/s  ]   Подробная статистика пиров
 
   
 
 
 

[Цитировать]

Олтмен
Altman- Дата/Год выпуска: 2014
Страна: Канада
Жанр: документальный, биографический
Продолжительность: 01:28:04
Перевод: Профессиональный (многоголосый закадровый)
Доп. инфо о переводе: Студия SDI Media по заказу телеканала "24 ДОК"
Русские субтитры: есть
Формат субтитров: hardsub (неотключаемые)
Доп. информация о субтитрах: форсированные, замена видеоряда
Режиссер: Рон Манн / Ron Mann
Телеканал: 24 ДОКВ ролях: Роберт Олтмен, Салли Келлерман, Джеймс Каан, Дональд Сазерленд, Эддиот Гулд, Кит Каррадайн, Лили Томлин, Робин Уильямс, Филип Бейкер Холл, Брюс Уиллис, Джулианна Мур, Лайл Ловетт, Пол Томас Андерсон
Описание: Фильм о о режиссере Роберте Олтмене, фильмы которого каждый видел хоть раз в жизни. Его картины "Военно-полевой госпиталь" (о бессмысленности войны во Вьетнаме) и "Госфорд-парк" (блестящий портрет эдвардианского английского общества глазами слуг) породили целые жанры в современном кинематографе. Автор фильма "Олтман" – знаменитый документалист Рон Манн. (анонс канала "24 ДОК")
Доп. информация: DVB-S
Номинация на лучший монтаж в полнометражном документальном фильме Canadian Screen Awards 2015.

качество: DVB
формат: MKV
Видео: MPEG Video 2, 720x576@768x576 (4:3), 25 fps, ~2188 kbps avg, 0.211 bit/pixel
Аудио: MPEG Audio 2, 2 ch, 48 kHz, 192 kbps

MediaInfo

ОбщееУникальный идентификатор : 225982884574386365204235545927704511293 (0xAA02B86E3CA50FF39D23473BB4EE033D)Полное имя : F:\My Torrents 3\[apreder]Altman(2014)DVB.mkvФормат : MatroskaВерсия формата : Version 2Размер файла : 1,49 ГбайтПродолжительность : 1 ч. 28 м.Режим общего битрейта : ПеременныйОбщий поток : 2428 Кбит/секНазвание фильма : AltmanДата выпуска : 2015-04-03Дата кодирования : UTC 2015-12-20 09:52:51Программа кодирования : mkvmerge v8.6.1 ('Flying') 64bitБиблиотека кодирования : libebml v1.3.3 + libmatroska v1.4.4Attachements : cover.jpg / cover_small.jpgDIRECTOR : Ron MannIMDB : tt2404171KEYWORDS : LAW_RATING : 16+
ВидеоИдентификатор : 1Формат : MPEG VideoВерсия формата : Version 2Профиль формата : Main@MainПараметр BVOP формата : ДаПараметр матрицы формата : ВыборочнаяПараметр GOP формата : VariableFormat_Settings_PictureStructure : FrameИдентификатор кодека : V_MPEG2Идентификатор кодека/Информация : MPEG 1 or 2 VideoПродолжительность : 1 ч. 28 м.Вид битрейта : ПеременныйБитрейт : 2188 Кбит/секШирина : 720 пикселейВысота : 576 пикселейСоотношение сторон : 4:3Режим частоты кадров : ПостоянныйЧастота кадров : 25,000 кадров/секСтандарт вещания : PALЦветовое пространство : YUVСубдискретизация насыщенности : 4:2:0Битовая глубина : 8 битТип развёртки : ЧересстрочнаяПорядок развёртки : Верхнее поле первоеМетод сжатия : С потерямиБит/(Пиксели*Кадры) : 0.211Временной код первого кадра : 00:00:00:00Оригинал временного кода : Group of pictures headerРазмер потока : 1,35 Гбайт (90%)Default : ДаForced : Нет
АудиоИдентификатор : 2Формат : MPEG AudioВерсия формата : Version 1Профиль формата : Layer 2Идентификатор кодека : A_MPEG/L2Идентификатор кодека/Подсказка : MP2Продолжительность : 1 ч. 28 м.Вид битрейта : ПостоянныйБитрейт : 192 Кбит/секКаналы : 2 каналаЧастота : 48,0 КГцМетод сжатия : С потерямиРазмер потока : 121 Мбайт (8%)Язык : RussianDefault : ДаForced : Нет

Скриншоты


Резервные скриншоты


[teatrix.ru].t12314.torrent 
Торрент: Зарегистрирован [ 2015-12-20 23:50 ] · 4C7D9192A29CE816AD8CB21131F3628F79C852B6

Скачать .torrent

Скачать

15 KB

Статус: проверено
Скачан: 0 раз
Размер: 1.49 GB
terms.php



Быстрый ответ

Имя:

      
Для отправки сообщений необходимо включить JavaScript
Показать сообщения:    

Текущее время: 04-Дек 23:21

Часовой пояс: UTC + 3


Вы можете начинать темы
Вы можете отвечать на сообщения
Вы не можете редактировать свои сообщения
Вы не можете удалять свои сообщения
Вы не можете голосовать в опросах
Вы не можете прикреплять файлы к сообщениям
Вы можете скачивать файлы