[TR24][OF] Cappella SF - Light of Gold - 2015 (Classical/Choral)


Статистика раздачи [Обновить пиров]
Размер:  941 MB   |    Зарегистрирован:  11 месяцев 16 дней   |    Скачан:  0 раз

Полного источника не было: Никогда

Личеров:  2  [  0 KB/s  ]   Подробная статистика пиров
 
   
 
 
 

[Цитировать]

Cappella SF

Light of Gold-Жанр: Classical/Choral
Год издания диска: 2015
Дата записи: August 29 – September 1, 2014
Издатель (лейбл): Delos
Номер по каталогу: DE 3485
Аудиокодек: FLAC
Тип рипа: tracks
Формат записи/Источник записи: [TR24][OF]
Разрядность: 24/96
Формат: WAV (flac.ape.wv)
Количество каналов: 2.0
Битрейт аудио: lossless
Продолжительность:
Источник: WEB
Наличие сканов: Digital booklet-
-
1. Veni, veni, Emmanuel, arr. Ragnar Bohlin
2. Michael Praetorius: Psallite unigenito
3. Lo, how a Rose, arr. Mårten Jansson
4. In dulci jubilo, arr. Bartholomeus Gesius and J.S. Bach
5. Silent Night, arr. Hanns Miessner
6. Ding, dong! Merrily on high, arr. Sir David Willcocks
7. Benjamin Britten: Balulalow
8. Benjamin Britten: This little babe
9. The first Nowell, arr. Willcocks
10. John Rutter: Candlelight carol
11. Audete, gaudete, arr. Ward Swingle
12. Fredrik Sixten: There is no rose
13. Fredrik Sixten: The song of the star (World premiere recording)
14. Folke Bohlin: Look! Shepherds of Bethlehem
15. Gustaf Nordqvist: Jul, jul, strålande jul
16. David Conte: Patapan
17. David Conte: O magnum mysterium
18. Eric Whitacre: Lux aurumque
19. Go tell it on the mountain, arr. Ragnar Bohlin
20. Have yourself a merry little Christmas, arr. Barlow Bradford
-

Исполнители

Soprano:
Cheryl Cain
Julia Fischer
Elizabeth Kimble
Cecilia Lam
Kate Offer
Alexandra Sessler
Alto:
Clifton Massey
Gail Nakano
Brielle Marina Neilson
Danielle Sampson
Meghan Spyker
Nicole Takesono
Tenor:
Matthew Curtis
Elliott Encarnación
Jimmy Kansau
Sam Smith
Eric Tuan
Steven Ziegler
Bass:
Adam Cole
Tom Hart
Richard Mix
Matthew Peterson
Mark Sumner
Chung-Wai Soong
Soloists/Instrumental artists:
Track 7, “Balulalow” – soprano Alexandra Sessler
Track 14, “Look! Shepherds of Bethlehem” – mezzo-soprano Danielle Sampson, tenor Jimmy Kansau
Track 18, “Lux Aurumque” – soprano Julia Fischer
Tracks 6, 9, 10, & 20 – organist Jonathan Dimmock
Tracks 7 & 8 – harpist Emma Quinn

Dynamic Range Meter

[pre]foobar2000 1.3.9 / Замер динамического диапазона (DR) 1.1.1
Дата отчёта: 2015-12-20 14:09:50
--------------------------------------------------------------------------------
Анализ: Anonymous/Cappella SF / Light of Gold (1-2)
Bernard de la Monnoye/David Conte/Cappella SF / Light of Gold (3)
Cappella SF/Jonathan Dimmock / Light of Gold (4)
David Willcocks/Cappella SF/Jonathan Dimmock / Light of Gold (5)
David Willcocks/George Ratcliffe Woodward/Cappella SF/Jonathan Dimmock / Light of Gold (6)
Edward Esch/Julia Fischer/Cappella SF / Light of Gold (7)
Edward Evers/Cappella SF / Light of Gold (8)
Hugh Martin/Barlow Bradford/Cappella SF/Jonathan Dimmock / Light of Gold (9)
J. Ivor John/Danielle Sampson/Jimmy Kansau/Cappella SF / Light of Gold (10)
James Wedderburn/Robert Southwell/Alexandra Sessler/Cappella SF/Emma Quinn / Light of Gold (11-12)
Johann Sebastian Bach/Barholomaus Gesius/Cappella SF / Light of Gold (13)
Josef Mohr/Hanns Miessner/Cappella SF / Light of Gold (14)
Leonard B. Eyre/Cappella SF / Light of Gold (15)
Marten Jansson/Cappella SF / Light of Gold (16)
Ragnar Bohlin/Cappella SF / Light of Gold (17-18)
Traditional/Cappella SF / Light of Gold (19)
Ward Swingle/Cappella SF / Light of Gold (20)
--------------------------------------------------------------------------------
DR Пики RMS Продолжительность трека
--------------------------------------------------------------------------------
DR13 -7.34 дБ -25.48 дБ 1:35 02-Psallite unigenito
DR12 -2.07 дБ -20.80 дБ 3:21 17-O magnum mysterium
DR16 -4.67 дБ -26.94 дБ 1:33 16-Patapan (arr. D. Conte for choir)
DR15 -3.47 дБ -24.69 дБ 4:15 10-Candlelight Carol
DR13 -1.73 дБ -20.83 дБ 5:05 09-The First Nowell (arr. D. Willcocks for choir and organ)
DR12 -5.95 дБ -23.62 дБ 1:54 06-Ding Dong Merrily on High (arr. D. Willcocks for choir and organ)
DR12 -7.00 дБ -26.68 дБ 4:07 18-Lux aurumque: Lux Aurumque
DR12 -14.63 дБ -32.01 дБ 2:59 15-Jul, jul, strålande jul: Jul, jul stralande jul (Christmas, Radiant Christmas)
DR14 -4.34 дБ -24.43 дБ 4:57 20-Meet Me in St. Louis: Have Yourself a Merry Little Christmas (arr. B. Bradford for choir and organ)
DR13 -8.10 дБ -25.86 дБ 3:20 14-Look! Shepherds of Bethlehem
DR11 -5.86 дБ -23.64 дБ 1:28 07-A Ceremony of Carols, Op. 28: Balulalow
DR12 -1.02 дБ -17.00 дБ 1:34 08-A Ceremony of Carols, Op. 28: This little Babe
DR12 -4.46 дБ -22.91 дБ 1:29 04-In dulci Jubilo (arr. B. Gesius and J.S. Bach for choir)
DR15 -3.86 дБ -25.40 дБ 3:23 05-Stille Nacht (Silent Night) (arr. H. Miessner for choir)
DR13 -4.52 дБ -25.26 дБ 1:36 13-The Song of the Star
DR15 -3.86 дБ -27.55 дБ 3:44 03-Lo how a rose e'er blooming (Es ist ein Ros' entsprungen) (arr. M. Jansson for choir)
DR15 -3.65 дБ -25.32 дБ 1:52 01-Veni, veni Emmanuel (O come, O come Emmanuel) (arr. R. Bohlin for choir)
DR12 -2.89 дБ -21.36 дБ 1:45 19-Go Tell It on the Mountain (arr. R. Bohlin for choir)
DR13 -1.02 дБ -20.56 дБ 5:46 12-There is no Rose of Such Vertu
DR12 -2.67 дБ -22.70 дБ 1:29 11-Audete, Gaudete (arr. W. Swingle)
--------------------------------------------------------------------------------
Количество треков: 20
Реальные значения DR: DR13
Частота: 96000 Гц
Каналов: 2
Разрядность: 24
Битрейт: 2411 кбит/с
Кодек: FLAC
================================================================================

Скриншот спектра частот

Track 1
[teatrix.ru].t12315.torrent 
Торрент: Зарегистрирован [ 2015-12-20 23:50 ] · 6940E61AC6AF49D80717F1F6F8E8FA26A203D10D

Скачать .torrent

Скачать

21 KB

Статус: проверено
Скачан: 0 раз
Размер: 941 MB
terms.php



Быстрый ответ

Имя:

      
Для отправки сообщений необходимо включить JavaScript
Показать сообщения:    

Текущее время: 06-Дек 17:04

Часовой пояс: UTC + 3


Вы можете начинать темы
Вы можете отвечать на сообщения
Вы не можете редактировать свои сообщения
Вы не можете удалять свои сообщения
Вы не можете голосовать в опросах
Вы не можете прикреплять файлы к сообщениям
Вы можете скачивать файлы