Табу / Taboo / Gohatto (Нагиса Осима / Nagisa Oshima) [1999, Япония, Франция, Великобритания, триллер, драма, история, DVDRip] AVO (Сербин)


Статистика раздачи [Обновить пиров]
Размер:  1.38 GB   |    Зарегистрирован:  11 месяцев 12 дней   |    Скачан:  0 раз

Полного источника не было: Никогда

 
   
 
 
 

[Цитировать]

Табу / Taboo / Gohatto
Страна: Япония, Франция, Великобритания
Жанр: триллер, драма, история
Год выпуска: 1999
Продолжительность: 01:40:22
Перевод: Авторский (одноголосый закадровый) Сербин
Cубтитры: нет
Оригинальная аудиодорожка: нет
Режиссер: Нагиса Осима / Nagisa Oshima
В ролях: Рюхэй Мацуда, Таданобу Асано, Синдзи Такеда, Такеши Китано, Ёити Саи, Дзиро Сакагами, Кодзи Матоба, Маса Томмиэс, Масато Ибу, Дзакоба Кацура
Описание: Феодальная Япония, кланы борются за единую власть. Подвиг самураев — пример и руководство к действию. И вот в один из отрядов поступает молодой новобранец. Длинные волосы, девичье лицо, одежды нежных оттенков… В результате голубой молодой воин свел с ума большую часть войска, вызвав немало ссор и даже убийств.
Сэмпл: http://sendfile.su/1185129
Качество видео: DVDRip
Формат видео: AVI
Видео: 704x416 (1.69:1), 23.976 fps, DivX Codec 6.8.5/6.9.1 ~1772 kbps avg, 0.25 bit/pixel
Аудио: 48 kHz, AC3 Dolby Digital, 2/0 (L,R) ch, ~192 kbps

MediaInfo

Формат : AVI
Формат/Информация : Audio Video Interleave
Размер файла : 1,38 Гбайт
Продолжительность : 1 ч. 40 м.
Общий поток : 1974 Кбит/сек
Библиотека кодирования : VirtualDub build 34807/release
Видео
Идентификатор : 0
Формат : MPEG-4 Visual
Параметр BVOP формата : 1
Параметр QPel формата : Нет
Параметр GMC формата : Без точки перехода
Параметр матрицы формата : Default (H.263)
Идентификатор кодека : DX50
Идентификатор кодека/Подсказка : DivX 5
Продолжительность : 1 ч. 40 м.
Битрейт : 1772 Кбит/сек
Ширина : 704 пикселя
Высота : 416 пикселей
Соотношение сторон : 1,692
Частота кадров : 23,976 кадра/сек
Цветовое пространство : YUV
Субдискретизация насыщенности : 4:2:0
Битовая глубина : 8 бит
Тип развёртки : Прогрессивная
Метод сжатия : С потерями
Бит/(Пиксели*Кадры) : 0.252
Размер потока : 1,24 Гбайт (90%)
Библиотека кодирования : DivX 6.8.5 (UTC 2009-08-20)
Аудио
Идентификатор : 1
Формат : AC-3
Формат/Информация : Audio Coding 3
Расширение режима : CM (complete main)
Идентификатор кодека : 2000
Продолжительность : 1 ч. 40 м.
Вид битрейта : Постоянный
Битрейт : 192 Кбит/сек
Каналы : 2 канала
Расположение каналов : Front: L R
Частота : 48,0 КГц
Битовая глубина : 16 бит
Метод сжатия : С потерями
Размер потока : 138 Мбайт (10%)
Выравнивание : Соединение по промежуткам
Продолжительность промежутка : 42 мс. (1,00 видеокадр)
Время предзагрузки промежутка : 512 мс.

Скриншоты

[teatrix.ru].t12318.torrent 
Торрент: Зарегистрирован [ 2015-12-28 20:37 ] · DA4419E9F44021F1AB989D223095D9E7745731B1

Скачать .torrent

Скачать

28 KB

Статус: проверено
Скачан: 0 раз
Размер: 1.38 GB
terms.php



Быстрый ответ

Имя:

      
Для отправки сообщений необходимо включить JavaScript
Показать сообщения:    

Текущее время: 10-Дек 17:42

Часовой пояс: UTC + 3


Вы можете начинать темы
Вы можете отвечать на сообщения
Вы не можете редактировать свои сообщения
Вы не можете удалять свои сообщения
Вы не можете голосовать в опросах
Вы не можете прикреплять файлы к сообщениям
Вы можете скачивать файлы