(Score) Обещание / Une Promesse / A Promise (by Gabriel Yared) - 2014 (2013), FLAC (tracks+.cue), lossless


Статистика раздачи [Обновить пиров]
Размер:  209 MB   |    Зарегистрирован:  11 месяцев 19 дней   |    Скачан:  0 раз

Полного источника не было: Никогда

 
   
 
 
 

[Цитировать]

Обещание / Une Promesse / A Promise-Жанр: Score
Композитор: Gabriel Yared
Год выпуска диска: 2014
Год выпуска фильма: 2013
Производитель диска: France
Издатель (лейбл): Play-Time
Номер по каталогу: PL1404287-Аудиокодек: FLAC (*.flac)
Тип рипа: tracks+.cue
Битрейт аудио: lossless
Продолжительность: 00:35:16
Источник: собственный рип
Наличие сканов в содержимом раздачи: да, 600 dpi-Ссылки: Кинопоиск | IMDB | Wikipedia | SoundtrackCollector
MP3: (Score) Обещание / A Promise / Une Promesse (by Gabriel Yared) - 2014, MP3 (tracks), 320 kbps
Gabriel Yared: lossless | lossy

Треклист

01. Le Fer et le feu / Iron and Fire [0:02:39.35]
02. Un jeu innocent / An Innocent Game [0:01:11.05]
03. La Femme que j'aime / The Woman I Love [0:01:13.04]
04. Les Lettres / The Letters [0:03:25.28]
05. Ma promesse / My Promise [0:01:58.15]
06. Le Morceau du puzzle / The Piece of the Puzzle [0:02:56.42]
07. La Mort bientôt / Death Soon [0:03:38.21]
08. La Guerre est déclarée / We are at War [0:05:33.47]
09. Lotte et Friedrich / Lotte and Friedrich [0:00:44.65]
10. Le Travail à l'usine / At the Factory [0:01:25.27]
11. Sous le charme / Under the Spell [0:01:50.01]
12. Le Voyage dans le passe / Journey into the Past [0:01:51.73]
13. Où es-tu mon amour? / Where are you my Love? [0:01:52.63]
14. Dans les bras l'un de l'autre / Into Each's Other's Arms [0:04:55.46]

Лог создания рипа

Exact Audio Copy V1.1 from 23. June 2015
EAC extraction logfile from 19. December 2015, 22:44
Gabriel Yared / Une Promesse / A Promise
Used drive : PLEXTOR CD-R PX-230A Adapter: 1 ID: 2
Read mode : SecureUtilize accurate stream : YesDefeat audio cache : YesMake use of C2 pointers : No
Read offset correction : 738Overread into Lead-In and Lead-Out : NoFill up missing offset samples with silence : YesDelete leading and trailing silent blocks : NoNull samples used in CRC calculations : YesUsed interface : Native Win32 interface for Win NT & 2000Gap handling : Appended to previous track
Used output format : User Defined EncoderSelected bitrate : 1024 kBit/sQuality : HighAdd ID3 tag : NoCommand line compressor : C:\Program Files (x86)\Exact Audio Copy\FLAC\FLAC.EXEAdditional command line options : -6 -V -T "ARTIST=%artist%" -T "TITLE=%title%" -T "ALBUM=%albumtitle%" -T "DATE=%year%"-T "TRACKNUMBER=%tracknr%" -T "GENRE=%genre%" -T "COMMENT=%comment%" -T "ALBUMARTIST=%albuminterpret%" -T "COMPOSER=%composer%"-T "DISCNUMBER=%cdnumber%" -T "TOTALDISCS=%totalcds%" -T "TOTALTRACKS=%numtracks%" %source% -o %dest%
TOC of the extracted CD
Track | Start | Length | Start sector | End sector --------------------------------------------------------- 1 | 0:00.00 | 2:39.35 | 0 | 11959 2 | 2:39.35 | 1:11.05 | 11960 | 17289 3 | 3:50.40 | 1:13.04 | 17290 | 22768 4 | 5:03.44 | 3:25.28 | 22769 | 38171 5 | 8:28.72 | 1:58.15 | 38172 | 47036 6 | 10:27.12 | 2:56.42 | 47037 | 60278 7 | 13:23.54 | 3:38.21 | 60279 | 76649 8 | 17:02.00 | 5:33.47 | 76650 | 101671 9 | 22:35.47 | 0:44.65 | 101672 | 105036 10 | 23:20.37 | 1:25.27 | 105037 | 111438 11 | 24:45.64 | 1:50.01 | 111439 | 119689 12 | 26:35.65 | 1:51.73 | 119690 | 128087 13 | 28:27.63 | 1:52.63 | 128088 | 136550 14 | 30:20.51 | 4:55.46 | 136551 | 158721
Track 1
Filename C:\Music\01 - Gabriel Yared - Le Fer et le feu , Iron and Fire.wav
Pre-gap length 0:00:02.00
Peak level 98.4 % Extraction speed 4.8 X Track quality 100.0 % Test CRC 2B665504 Copy CRC 2B665504 Track not present in AccurateRip database Copy OK
Track 2
Filename C:\Music\02 - Gabriel Yared - Un jeu innocent , An Innocent Game.wav
Peak level 47.7 % Extraction speed 3.0 X Track quality 99.8 % Test CRC 2EB71059 Copy CRC 2EB71059 Track not present in AccurateRip database Copy OK
Track 3
Filename C:\Music\03 - Gabriel Yared - La Femme que j'aime , The Woman I Love.wav
Peak level 55.1 % Extraction speed 3.1 X Track quality 99.8 % Test CRC 0A8CB385 Copy CRC 0A8CB385 Track not present in AccurateRip database Copy OK
Track 4
Filename C:\Music\04 - Gabriel Yared - Les Lettres , The Letters.wav
Peak level 56.3 % Extraction speed 5.3 X Track quality 100.0 % Test CRC D9057E92 Copy CRC D9057E92 Track not present in AccurateRip database Copy OK
Track 5
Filename C:\Music\05 - Gabriel Yared - Ma promesse , My Promise.wav
Peak level 98.4 % Extraction speed 3.8 X Track quality 99.9 % Test CRC D661EBAA Copy CRC D661EBAA Track not present in AccurateRip database Copy OK
Track 6
Filename C:\Music\06 - Gabriel Yared - Le Morceau du puzzle , The Piece of the Puzzle.wav
Peak level 98.4 % Extraction speed 5.1 X Track quality 100.0 % Test CRC 65564F66 Copy CRC 65564F66 Track not present in AccurateRip database Copy OK
Track 7
Filename C:\Music\07 - Gabriel Yared - La Mort bientot , Death Soon.wav
Peak level 98.3 % Extraction speed 5.3 X Track quality 100.0 % Test CRC 412C5171 Copy CRC 412C5171 Track not present in AccurateRip database Copy OK
Track 8
Filename C:\Music\08 - Gabriel Yared - La Guerre est declaree , We are at War.wav
Peak level 95.0 % Extraction speed 3.8 X Track quality 99.9 % Test CRC B33A6AA7 Copy CRC B33A6AA7 Track not present in AccurateRip database Copy OK
Track 9
Filename C:\Music\09 - Gabriel Yared - Lotte et Friedrich , Lotte and Friedrich.wav
Peak level 57.9 % Extraction speed 2.6 X Track quality 100.0 % Test CRC F695CC3D Copy CRC F695CC3D Track not present in AccurateRip database Copy OK
Track 10
Filename C:\Music\10 - Gabriel Yared - Le Travail a l'usine , At the Factory.wav
Peak level 98.4 % Extraction speed 3.7 X Track quality 100.0 % Test CRC 8C4DE056 Copy CRC 8C4DE056 Track not present in AccurateRip database Copy OK
Track 11
Filename C:\Music\11 - Gabriel Yared - Sous le charme , Under the Spell.wav
Peak level 50.7 % Extraction speed 4.0 X Track quality 100.0 % Test CRC 89E57CDC Copy CRC 89E57CDC Track not present in AccurateRip database Copy OK
Track 12
Filename C:\Music\12 - Gabriel Yared - Le Voyage dans le passe , Journey into the Past.wav
Peak level 98.2 % Extraction speed 4.0 X Track quality 100.0 % Test CRC FDC39E2B Copy CRC FDC39E2B Track not present in AccurateRip database Copy OK
Track 13
Filename C:\Music\13 - Gabriel Yared - Ou es-tu mon amour , Where are you my Love.wav
Peak level 98.4 % Extraction speed 3.6 X Track quality 100.0 % Test CRC D26ED814 Copy CRC D26ED814 Track not present in AccurateRip database Copy OK
Track 14
Filename C:\Music\14 - Gabriel Yared - Dans les bras l'un de l'autre , Into Each's Other's Arms.wav
Peak level 98.4 % Extraction speed 3.3 X Track quality 100.0 % Test CRC 764C7582 Copy CRC 764C7582 Track not present in AccurateRip database Copy OK
None of the tracks are present in the AccurateRip database
No errors occurred
End of status report
---- CUETools DB Plugin V2.1.6
[CTDB TOCID: G2fa0MDyv9qmOfMASQH_FpXECpg-] foundSubmit result: G2fa0MDyv9qmOfMASQH_FpXECpg- has been confirmedTrack | CTDB Status 1 | (1/1) Accurately ripped 2 | (1/1) Accurately ripped 3 | (1/1) Accurately ripped 4 | (1/1) Accurately ripped 5 | (1/1) Accurately ripped 6 | (1/1) Accurately ripped 7 | (1/1) Accurately ripped 8 | (1/1) Accurately ripped 9 | (1/1) Accurately ripped 10 | (1/1) Accurately ripped 11 | (1/1) Accurately ripped 12 | (1/1) Accurately ripped 13 | (1/1) Accurately ripped 14 | (1/1) Accurately ripped
==== Log checksum D476F496C4B41B42D155787180B0AF0750E1C7530ACDED3B38481CF4B7C77ED3 ====

Содержание индексной карты (.CUE)

REM GENRE SoundtrackREM DATE 2014REM DISCID A308440EREM COMMENT "ExactAudioCopy v1.1"PERFORMER "Gabriel Yared"TITLE "Une Promesse / A Promise"FILE "01 - Gabriel Yared - Le Fer et le feu , Iron and Fire.wav" WAVE TRACK 01 AUDIO TITLE "Le Fer et le feu / Iron and Fire" PERFORMER "Gabriel Yared" INDEX 01 00:00:00FILE "02 - Gabriel Yared - Un jeu innocent , An Innocent Game.wav" WAVE TRACK 02 AUDIO TITLE "Un jeu innocent / An Innocent Game" PERFORMER "Gabriel Yared" INDEX 01 00:00:00FILE "03 - Gabriel Yared - La Femme que j'aime , The Woman I Love.wav" WAVE TRACK 03 AUDIO TITLE "La Femme que j'aime / The Woman I Love" PERFORMER "Gabriel Yared" INDEX 01 00:00:00FILE "04 - Gabriel Yared - Les Lettres , The Letters.wav" WAVE TRACK 04 AUDIO TITLE "Les Lettres / The Letters" PERFORMER "Gabriel Yared" INDEX 01 00:00:00FILE "05 - Gabriel Yared - Ma promesse , My Promise.wav" WAVE TRACK 05 AUDIO TITLE "Ma promesse / My Promise" PERFORMER "Gabriel Yared" INDEX 01 00:00:00FILE "06 - Gabriel Yared - Le Morceau du puzzle , The Piece of the Puzzle.wav" WAVE TRACK 06 AUDIO TITLE "Le Morceau du puzzle / The Piece of the Puzzle" PERFORMER "Gabriel Yared" INDEX 01 00:00:00FILE "07 - Gabriel Yared - La Mort bientot , Death Soon.wav" WAVE TRACK 07 AUDIO TITLE "La Mort bientot / Death Soon" PERFORMER "Gabriel Yared" INDEX 01 00:00:00FILE "08 - Gabriel Yared - La Guerre est declaree , We are at War.wav" WAVE TRACK 08 AUDIO TITLE "La Guerre est declaree / We are at War" PERFORMER "Gabriel Yared" INDEX 01 00:00:00FILE "09 - Gabriel Yared - Lotte et Friedrich , Lotte and Friedrich.wav" WAVE TRACK 09 AUDIO TITLE "Lotte et Friedrich / Lotte and Friedrich" PERFORMER "Gabriel Yared" INDEX 01 00:00:00FILE "10 - Gabriel Yared - Le Travail a l'usine , At the Factory.wav" WAVE TRACK 10 AUDIO TITLE "Le Travail a l'usine / At the Factory" PERFORMER "Gabriel Yared" INDEX 01 00:00:00FILE "11 - Gabriel Yared - Sous le charme , Under the Spell.wav" WAVE TRACK 11 AUDIO TITLE "Sous le charme / Under the Spell" PERFORMER "Gabriel Yared" INDEX 01 00:00:00FILE "12 - Gabriel Yared - Le Voyage dans le passe , Journey into the Past.wav" WAVE TRACK 12 AUDIO TITLE "Le Voyage dans le passe / Journey into the Past" PERFORMER "Gabriel Yared" INDEX 01 00:00:00FILE "13 - Gabriel Yared - Ou es-tu mon amour , Where are you my Love.wav" WAVE TRACK 13 AUDIO TITLE "Ou es-tu mon amour? / Where are you my Love?" PERFORMER "Gabriel Yared" INDEX 01 00:00:00FILE "14 - Gabriel Yared - Dans les bras l'un de l'autre , Into Each's Other's Arms.wav" WAVE TRACK 14 AUDIO TITLE "Dans les bras l'un de l'autre / Into Each's Other's Arms" PERFORMER "Gabriel Yared" INDEX 01 00:00:00
[teatrix.ru].t12329.torrent 
Торрент: Зарегистрирован [ 2015-12-21 07:15 ] · 13A2FA3F918A59A864F5E2080D5C0B0144172B9A

Скачать .torrent

Скачать

19 KB

Статус: проверено
Скачан: 0 раз
Размер: 209 MB
terms.php



Быстрый ответ

Имя:

      
Для отправки сообщений необходимо включить JavaScript
Показать сообщения:    

Текущее время: 09-Дек 22:26

Часовой пояс: UTC + 3


Вы можете начинать темы
Вы можете отвечать на сообщения
Вы не можете редактировать свои сообщения
Вы не можете удалять свои сообщения
Вы не можете голосовать в опросах
Вы не можете прикреплять файлы к сообщениям
Вы можете скачивать файлы