Кинозвезда. Анджелина Джоли / Movie Star. Angelina Jolie (Кевин Мигер / Kevin Meagher) [2014, Документальный, биография, кинематограф, SATRip]


Статистика раздачи [Обновить пиров]
Размер:  315 MB   |    Зарегистрирован:  11 месяцев 21 день   |    Скачан:  0 раз

Полного источника не было: Никогда

 
   
 
 
 

[Цитировать]

Кинозвезда. Анджелина Джоли / Movie Star. Angelina Jolie
Дата/Год выпуска: 2014
Страна: США
Жанр: Документальный, биография, кинематограф
Продолжительность: 00:22:00
Перевод: Профессиональный (двухголосый закадровый)
Русские субтитры: нет
Режиссер: Кевин Мигер / Kevin Meagher
Описание: Полное имя — Анджелина Джоли Войт (Angelina Jolie Voight). Анджелина Джоли — это её имя, а Войт — фамилия. Со времени получения "Оскара" Анджелина Джоли - желанная гостья на страницах европейских и российских газет и журналов. Раньше ей интересовались только в Америке и Англии, где она числилась в качестве подруги жизни тамошнего кумира молодежи Джонни Ли Миллера. Теперь же, после официального признания ее таланта Киноакадемией, об Анджелине пишут все, кому не лень. Пишут, не жалея эпитетов, прозвищ и мрачных красок. Ведь в американском шоубизнесе - со времен экспериментов Шер и детских выходок Кристины Риччи - давно не было таких мрачных персон. Всегда в черном, вся в татуировках, девушка "без тормозов", запретов и ограничений, живой плевок в "правила хорошего тона", мечта журналистов.У Анджелины Джоли шестеро детей от третьего брака с Брэдом Питтом: Мэддокс Чиван (05.08.01), Пакс Тьен (29.11.03), Захара Марли (08.01.05), Шайло Нувель (27.05.06) и двойняшки Нокс Леон и Вивьен Маршелин (12.07.08). Мэддокс Чиван, Пак Тьен и Захара Марли — приёмные, остальные трое — биологические. Все дети Анджелины и Брэда носят двойную фамилию — Джоли-Питт. Благодаря отцу актрисы, в её жилах течёт чешская и американская кровь, благодаря же матери — французская и хауденосаунийская (ирокийских индейцев).
Сэмпл: http://multi-up.com/1079996
качество: SATRip
формат: AVI
Видео: 704x480 (2:3), 25 fps ~ 1865 Kbps
Аудио: 48 KHz, MP3, 2 ch ~ 128 Kb/s

MediaInfo

General Complete name : Kinozvezda.Andzhelina.Dzholi.avi Format : AVI Format/Info : Audio Video Interleave File size : 315 MiB Duration : 21mn 59s Overall bit rate : 2 003 Kbps Writing application : VirtualDubMod 1.5.10.3 | www.virtualdub-fr.org || (build 2550/release) Writing library : VirtualDubMod build 2550/release Video #0 ID : 0 Format : MPEG-4 Visual Format profile : Advanced Simple@L5 Format settings, BVOP : 2 Format settings, QPel : No Format settings, GMC : No warppoints Format settings, Matrix : Default (MPEG) Codec ID : XVID Codec ID/Hint : XviD Duration : 21mn 59s Bit rate : 1 865 Kbps Width : 704 pixels Height : 480 pixels Display aspect ratio : 3:2 Frame rate : 25.000 fps Standard : NTSC Color space : YUV Chroma subsampling : 4:2:0 Bit depth : 8 bits Scan type : Progressive Compression mode : Lossy Bits/(Pixel*Frame) : 0.221 Stream size : 293 MiB (93%) Writing library : XviD 1.2.1 (UTC 2008-12-04) Audio #1 ID : 1 Format : MPEG Audio Format version : Version 1 Format profile : Layer 3 Codec ID : 55 Codec ID/Hint : MP3 Duration : 21mn 59s Bit rate mode : Constant Bit rate : 128 Kbps Channel(s) : 2 channels Sampling rate : 48.0 KHz Compression mode : Lossy Stream size : 20.1 MiB (6%) Alignment : Aligned on interleaves Interleave, duration : 40 ms (1.00 video frame) Interleave, preload duration : 504 ms Writing library : LAME3.99r Encoding settings : -m s -V 4 -q 2 -lowpass 17 -b 128

Скриншоты

[teatrix.ru].t12330.torrent 
Торрент: Зарегистрирован [ 2015-12-21 07:15 ] · 08058B826FDA0448DD7EB2E4BCCBCA8D739BA4D4

Скачать .torrent

Скачать

13 KB

Статус: проверено
Скачан: 0 раз
Размер: 315 MB
terms.php



Быстрый ответ

Имя:

      
Для отправки сообщений необходимо включить JavaScript
Показать сообщения:    

Текущее время: 11-Дек 09:07

Часовой пояс: UTC + 3


Вы можете начинать темы
Вы можете отвечать на сообщения
Вы не можете редактировать свои сообщения
Вы не можете удалять свои сообщения
Вы не можете голосовать в опросах
Вы не можете прикреплять файлы к сообщениям
Вы можете скачивать файлы