Рафаэль-развратник / Рафаэль или распутник / Raphaël ou le débauché / Raphael ou le debauche / Raphael, or The Lib (Мишель Девиль / Michel Deville) [1971, Франция, драма, DVDRip] MVO (Фортуна Фильм) + MVO + Sub Rus, Eng + Original Fre


Статистика раздачи [Обновить пиров]
Размер:  1.62 GB   |    Зарегистрирован:  11 месяцев 16 дней   |    Скачан:  0 раз

Полного источника не было: Никогда

 
   
 
 
 

[Цитировать]

Рафаэль-развратник / Рафаэль или распутник / Raphaël ou le débauché / Raphael ou le debauche / Raphael, or The Lib
Страна: Франция
Жанр: драма
Год выпуска: 1971
Продолжительность: 01:40:51
Перевод: Профессиональный (многоголосый закадровый) - Фортуна Фильм
Перевод: Профессиональный (многоголосый закадровый)
Cубтитры: русские, английские
Оригинальная аудиодорожка: французский

Режиссер: Мишель Девиль / Michel Deville
В ролях: Морис Роне, Франсуаза Фабиан, Брижит Фоссе, Жан Вилар, Жан-Франсуа Порон, Андре Умански, Морис Барье, Жан-Пьер Бернар, Изабель де Фюнес
Описание: «Меня бросили — я качусь» — так живет Рафаэль де Лоррис. Он знает, что катится вниз, но ничего не делает, чтобы исправить положение, потому что давно разочаровался в жизни. А чтобы разогнать тоску, есть проверенное средство — вино, которое можно выпить с друзьями, и женщины, с которыми можно развлечься.
Аврора де Шеруа, с которой однажды на балу знакомится Рафаэль, не из их числа, однако ему хочется завоевать королеву бала, тем более что его самолюбие несколько пострадало, ведь красавица Аврора, скользнув по нему взглядом, поспешила покинуть его общество со словами: «Никогда не запомню это имя».
Но она его запомнит, ведь именно Рафаэль внушит ей чувства, о которых она ничего не знала и над которыми насмехалась. Только Рафаэль не принимает её любовь, потому что не может измениться, в его жизни нет для неё места: «Я не переступлю черту, которая разделяет нас с вами».

Качество видео:DVDRip
Формат видео: AVI
Видео: 656x400 (1.64:1), 25 fps, XviD build 73 ~1776 kbps avg, 0.27 bit/pixel
Аудио: 48 kHz, AC3 Dolby Digital, 2/0 (L,R) ch, ~192 kbps - Фортуна
отдельными файлами:
Аудио: 48 kHz, MPEG Layer 3, 2 ch, ~128.00 kbps avg - многоголосый
Аудио: 48 kHz, AC3 Dolby Digital, 2/0 (L,R) ch, ~192 kbps - оригинал

MediaInfo

Общее
Полное имя : H:\Raphael.ou.le.debauche.1971.dvdrip_[1.46]_[teko]\Raphael.ou.le.debauche.1971.dvdrip_[1.46].avi
Формат : AVI
Формат/Информация : Audio Video Interleave
Размер файла : 1,39 Гбайт
Продолжительность : 1 ч. 40 м.
Общий поток : 1978 Кбит/сек
Программа кодирования : VirtualDubMod 1.5.10.3 | www.virtualdub-fr.org || (build 2550/release)
Библиотека кодирования : VirtualDubMod build 2550/release
Видео
Идентификатор : 0
Формат : MPEG-4 Visual
Профиль формата : Advanced Simple@L5
Параметр BVOP формата : 1
Параметр QPel формата : Нет
Параметр GMC формата : Без точки перехода
Параметр матрицы формата : Выборочная
Идентификатор кодека : XVID
Идентификатор кодека/Подсказка : XviD
Продолжительность : 1 ч. 40 м.
Битрейт : 1776 Кбит/сек
Ширина : 656 пикселей
Высота : 400 пикселей
Соотношение сторон : 16:10
Частота кадров : 25,000 кадров/сек
Цветовое пространство : YUV
Субдискретизация насыщенности : 4:2:0
Битовая глубина : 8 бит
Тип развёртки : Прогрессивная
Метод сжатия : С потерями
Бит/(Пиксели*Кадры) : 0.271
Размер потока : 1,25 Гбайт (90%)
Библиотека кодирования : XviD 73
Аудио
Идентификатор : 1
Формат : AC-3
Формат/Информация : Audio Coding 3
Расширение режима : CM (complete main)
Параметр Endianness формата : Big
Идентификатор кодека : 2000
Продолжительность : 1 ч. 40 м.
Вид битрейта : Постоянный
Битрейт : 192 Кбит/сек
Каналы : 2 канала
Расположение каналов : Front: L R
Частота : 48,0 КГц
Битовая глубина : 16 бит
Метод сжатия : С потерями
Размер потока : 138 Мбайт (10%)
Выравнивание : Разделение по промежуткам
Продолжительность промежутка : 40 мс. (1,00 видеокадр)
Время предзагрузки промежутка : 500 мс.
[teatrix.ru].t12338.torrent 
Торрент: Зарегистрирован [ 2015-12-22 19:30 ] · 8DE2DE1F1D05F59623F17F6F3B4D16F729159CD9

Скачать .torrent

Скачать

17 KB

Статус: проверено
Скачан: 0 раз
Размер: 1.62 GB
terms.php



Быстрый ответ

Имя:

      
Для отправки сообщений необходимо включить JavaScript
Показать сообщения:    

Текущее время: 07-Дек 21:21

Часовой пояс: UTC + 3


Вы можете начинать темы
Вы можете отвечать на сообщения
Вы не можете редактировать свои сообщения
Вы не можете удалять свои сообщения
Вы не можете голосовать в опросах
Вы не можете прикреплять файлы к сообщениям
Вы можете скачивать файлы