Кроткая / Une femme douce (Робер Брессон / Robert Bresson) [1969, Франция, драма, TVRip] + Sub Rus + Original Fre


Статистика раздачи [Обновить пиров]
Размер:  1.31 GB   |    Зарегистрирован:  11 месяцев 11 дней   |    Скачан:  1 раз
Сидов:  1  [  0 KB/s  ]   Подробная статистика пиров
 
   
 
 
 

[Цитировать]

Кроткая / Une femme douce
Страна: Франция
Жанр: драма
Год выпуска: 1969
Продолжительность: 1:25:06
Перевод: Субтитры (Seandy)
Cубтитры: русские, английские
Оригинальная аудиодорожка: французский
Режиссер: Робер Брессон / Robert Bresson
В ролях: Доминик Санда, Гай Франжен, Джейн Лобр, Клод Оллье, Жак Кебадян, Жилль Сандье, Доротея Бланк
Описание: Фильм Робера Брессона по мотивам одноименного рассказа Ф.М. Достоевского.
(Действие перенесено в 1960-е годы в Париж)
Содержанием рассказа Достоевского является сбивчивый монолог мужчины у безжизненного тела его молодой жены,
несколько часов перед этим выбросившейся из окна. Вот как говорит об этом сам писатель:

Сэмпл: http://multi-up.com/1080460
Качество видео: TVRip-AVC
Формат видео: MKV
Видео: MPEG4 Video (H264) 700x598@993x598 (181:109) 25fps 2205 Kbps
Аудио: mp3 44100 Hz stereo 256 kb/s
Формат субтитров: softsub (SRT)
(для озвучки нужна синхронизация 29.97 > 25 fps)

MediaInfo

General
Complete name : Une Femme Douce (1969).mkv
Format : Matroska
Format version : Version 4 / Version 2
File size : 1.31 GiB
Duration : 1h 25mn
Overall bit rate : 2 205 Kbps
Writing application : mkvmerge v7.4.0 ('Circles') 32bit built on Dec 12 2014 12:10:09
Writing library : libebml v1.3.0 + libmatroska v1.4.1
DURATION : 01:24:07.792000000
NUMBER_OF_FRAMES : 335
NUMBER_OF_BYTES : 12674
_STATISTICS_WRITING_APP : mkvmerge v7.4.0 ('Circles') 32bit built on Dec 12 2014 12:10:09
_STATISTICS_TAGS : BPS DURATION NUMBER_OF_FRAMES NUMBER_OF_BYTES
Video
ID : 1
Format : AVC
Format/Info : Advanced Video Codec
Format profile : Main@L4.0
Format settings, CABAC : Yes
Format settings, ReFrames : 16 frames
Codec ID : V_MPEG4/ISO/AVC
Duration : 1h 25mn
Bit rate : 1 906 Kbps
Width : 700 pixels
Height : 598 pixels
Display aspect ratio : 1.661
Original display aspect ratio : 5:4
Frame rate mode : Constant
Frame rate : 25.000 fps
Color space : YUV
Chroma subsampling : 4:2:0
Bit depth : 8 bits
Scan type : Progressive
Bits/(Pixel*Frame) : 0.182
Stream size : 1.13 GiB (86%)
Writing library : x264 core 130 r2273 b3065e6
Encoding settings : cabac=1 / ref=16 / deblock=1:-1:-1 / analyse=0x1:0x131 / me=umh / subme=10 / psy=1 / psy_rd=1.00:0.15 / mixed_ref=1 / me_range=24 / chroma_me=1 / trellis=2 / 8x8dct=0 / cqm=0 / deadzone=21,11 / fast_pskip=1 / chroma_qp_offset=-3 / threads=12 / lookahead_threads=2 / sliced_threads=0 / nr=0 / decimate=1 / interlaced=0 / bluray_compat=0 / constrained_intra=0 / bframes=8 / b_pyramid=2 / b_adapt=2 / b_bias=0 / direct=3 / weightb=1 / open_gop=0 / weightp=2 / keyint=250 / keyint_min=25 / scenecut=40 / intra_refresh=0 / rc_lookahead=60 / rc=crf / mbtree=1 / crf=15.0 / qcomp=0.60 / qpmin=0 / qpmax=69 / qpstep=4 / vbv_maxrate=20000 / vbv_bufsize=25000 / crf_max=0.0 / nal_hrd=none / ip_ratio=1.40 / aq=1:1.00
Default : Yes
Forced : No
Color primaries : BT.601 PAL
Transfer characteristics : BT.709
Matrix coefficients : BT.601
DURATION : 01:25:05.560000000
NUMBER_OF_FRAMES : 127639
NUMBER_OF_BYTES : 1242806013
_STATISTICS_WRITING_APP : mkvmerge v7.4.0 ('Circles') 32bit built on Dec 12 2014 12:10:09
_STATISTICS_TAGS : BPS DURATION NUMBER_OF_FRAMES NUMBER_OF_BYTES
Audio
ID : 2
Format : MPEG Audio
Format version : Version 1
Format profile : Layer 3
Mode : Joint stereo
Mode extension : MS Stereo
Codec ID : A_MPEG/L3
Codec ID/Hint : MP3
Duration : 1h 25mn
Bit rate mode : Constant
Bit rate : 256 Kbps
Channel(s) : 2 channels
Sampling rate : 44.1 KHz
Compression mode : Lossy
Delay relative to video : -80ms
Stream size : 156 MiB (12%)
Language : French
Default : Yes
Forced : No
DURATION : 01:25:05.554000000
NUMBER_OF_FRAMES : 195447
NUMBER_OF_BYTES : 163377738
_STATISTICS_WRITING_APP : mkvmerge v7.4.0 ('Circles') 32bit built on Dec 12 2014 12:10:09
_STATISTICS_TAGS : BPS DURATION NUMBER_OF_FRAMES NUMBER_OF_BYTES
Text #1
ID : 3
Format : UTF-8
Codec ID : S_TEXT/UTF8
Codec ID/Info : UTF-8 Plain Text
Language : Russian
Default : Yes
Forced : Yes
Text #2
ID : 4
Format : UTF-8
Codec ID : S_TEXT/UTF8
Codec ID/Info : UTF-8 Plain Text
Language : English
Default : No
Forced : No

Пример субтитров

1
00:00:10,680 --> 00:00:15,520
Маг Бодар
представляет
2
00:00:15,560 --> 00:00:20,240
фильм Робера Брессона
3
00:00:20,280 --> 00:00:24,080
по мотивам повести
Ф.М. Достоевского
4
00:00:24,120 --> 00:00:29,840
>
5
00:00:29,880 --> 00:00:36,480
В ролях: Доминик Санда, Ги Франжен,
Джейн Лобре, Доротe Бланк, Клод Оллье
6
00:00:36,520 --> 00:00:42,320
Оператор
Гислен Клоке
7
00:01:05,440 --> 00:01:10,200
Композитор
Жан Винер
8
00:02:16,010 --> 00:02:18,548
На вид она была лет
16-ти. Вы помните?
9
00:02:20,960 --> 00:02:22,217
Да.
10
00:02:43,520 --> 00:02:46,482
Сначала я не обратил
на неё внимания.
11
00:03:33,854 --> 00:03:35,963
Я знал,
как себя вести.
12
00:03:36,712 --> 00:03:37,998
Какое сокровище!
13
00:03:46,564 --> 00:03:49,527
Наверное, тогда я
и заметил её...
14
00:03:57,008 --> 00:03:59,492
И так получилось, что
я стал думать о ней.
15
00:04:27,465 --> 00:04:31,085
А потом она принесла
янтарный мундштук...
16
00:04:31,714 --> 00:04:33,390
... ничего
особенного
17
00:04:41,387 --> 00:04:43,302
Я не сделал бы этого
ни для кого другого.
18
00:04:51,345 --> 00:04:53,260
Она взяла
квитанции.
19
00:05:18,524 --> 00:05:20,739
И я знал, что
она вернётся.
20
00:05:22,362 --> 00:05:24,457
Когда она вернулась,
мы разговорились.

Скриншот c названием фильма

Скриншоты

[teatrix.ru].t12340.torrent 
Торрент: Зарегистрирован [ 2015-12-22 19:30 ] · 3A82EEC46800E020EDA70BDA9D8D93DE78C93233

Скачать .torrent

Скачать

14 KB

Статус: проверено
Скачан: 1 раз
Размер: 1.31 GB
terms.php



Быстрый ответ

Имя:

      
Для отправки сообщений необходимо включить JavaScript
Показать сообщения:    

Текущее время: 02-Дек 21:14

Часовой пояс: UTC + 3


Вы можете начинать темы
Вы можете отвечать на сообщения
Вы не можете редактировать свои сообщения
Вы не можете удалять свои сообщения
Вы не можете голосовать в опросах
Вы не можете прикреплять файлы к сообщениям
Вы можете скачивать файлы