А. М. Волков и его сказки о волшебной стране [2015 г., Литературно-музыкальная композиция, WEB-DLRip] Московская государственная академическая филармония


 

[Цитировать]

А. М. Волков и его сказки о волшебной стране Московская государственная филармония.
Концертный зал имени П. И. Чайковского.

Год выпуска: 2015.
Жанр: Литературно-музыкальная композиция.
Продолжительность: 01:04:56.
Исполнитель: Павел Любимцев.
Национальный академический оркестр народных инструментов России имени Н. П. Осипова.
Дирижер:
Владимир Андропов.
В концерте принимают участие солисты и ансамбли оркестра.
Описание:
В программе: Александр Мелентьевич Волков и его сказки о волшебной стране - "Волшебник Изумрудного города", "Урфин Джюс и его деревянные солдаты", "Семь подземных королей".
Дополнительная информация:
Страна: Россия .
Автор: Александр Мелентьевич Волков.
Звучит музыка: Эдварда Грига, Джона Филипа Суза, Александра Цыганкова, Ирины Минаковой, обработки народных мелодий.
Запись из концертного зала имени Чайковского.
Академический симфонический оркестр Московской филармонии.

Абонемент №60: "Забавный профессор".
Седьмой год цикла - "Были и небылицы".

Вечер состоялся 21 ноября 2015 года.
Релиз
Рип lesik689.

Качество видео:...WEB-DLRip
Формат:.................AVI
Видео:..720x400 (1.80:1), 25 fps, XviD MPEG-4 ~1602 kbps avg, 0.22 bit/pixel
Аудио:..44.100 kHz, MPEG Layer 3, 2 ch, ~192.00 kbps avg

Отчет Media Info

General
Complete name : A.M.Volkov.i.ego.skazki.o.volshebnoy.strane_KZCh.2015.XviD.WEB-DLRip.fenixclub.avi
Format : AVI
Format/Info : Audio Video Interleave
File size : 838 MiB
Duration : 1h 4mn
Overall bit rate : 1 804 Kbps
Writing application : VirtualDubMod 1.5.10.2 (build 2542/release)
Writing library : VirtualDubMod build 2542/release
Video
ID : 0
Format : MPEG-4 Visual
Format profile : Advanced Simple@L5
Format settings, BVOP : 2
Format settings, QPel : No
Format settings, GMC : No warppoints
Format settings, Matrix : Default (MPEG)
Codec ID : XVID
Codec ID/Hint : XviD
Duration : 1h 4mn
Bit rate : 1 602 Kbps
Width : 720 pixels
Height : 400 pixels
Display aspect ratio : 16:9
Original display aspect rat : 16:9
Frame rate : 25.000 fps
Color space : YUV
Chroma subsampling : 4:2:0
Bit depth : 8 bits
Scan type : Progressive
Compression mode : Lossy
Bits/(Pixel*Frame) : 0.223
Stream size : 744 MiB (89%)
Writing library : XviD 73
Audio
ID : 1
Format : MPEG Audio
Format version : Version 1
Format profile : Layer 3
Mode : Joint stereo
Codec ID : 55
Codec ID/Hint : MP3
Duration : 1h 4mn
Bit rate mode : Constant
Bit rate : 192 Kbps
Channel(s) : 2 channels
Sampling rate : 44.1 KHz
Compression mode : Lossy
Stream size : 89.0 MiB (11%)
Alignment : Split accross interleaves
Interleave, duration : 40 ms (1.00 video frame)
Interleave, preload duratio : 500 ms.

Скриншоты

Альтернативный хост




Показать сообщения:    

Текущее время: 08-Дек 03:14

Часовой пояс: UTC + 3


Вы не можете начинать темы
Вы не можете отвечать на сообщения
Вы не можете редактировать свои сообщения
Вы не можете удалять свои сообщения
Вы не можете голосовать в опросах
Вы не можете прикреплять файлы к сообщениям
Вы не можете скачивать файлы