Миро. Театр сновидений / Miro: Theatre of Dreams (Робин Лох / Robin Lough) [1978, Великобритания, биографический, документальный, VHSRip] + Sub Rus + Original Eng/Fre/Cat


Статистика раздачи [Обновить пиров]
Размер:  587 MB   |    Зарегистрирован:  11 месяцев 14 дней   |    Скачан:  0 раз

Полного источника не было: 7 месяцев 17 дней

 
   
 
 
 

[Цитировать]

Миро. Театр сновидений / Miro: Theatre of Dreams
Страна: Великобритания
Жанр: биографический, документальный
Год выпуска: 1978
Продолжительность: 00:55:53
Перевод: Субтитры
Cубтитры: русские
Оригинальная аудиодорожка: английский, французский, каталонский
Режиссер: Робин Лох / Robin Lough
В ролях: Хуан Миро/Joan Miró, Roland Penrose/Роланд Пенроуз, театральная труппа «Ла Клака»/«La Claca» theater group
Описание: Хуан Миро. Родился в Барселоне, Каталония – прославился во всём мире. Роланд Пенроуз снял о нём почти часовой фильм: 42 года его знакомства с Миро – 42 года непрерывных открытий в живописи, театре и скульптуре, но даже в этот час фильма восьмидесятипятилетний художник не перестаёт мыслить, выдумывать и творить. Пенроуз, вспоминая факты биографии и размышляя о картинах Миро, ведёт со своим старым другом диалог о символах, творчестве, простоте, случайности и рефлексии, о превращении банальности в искусство, о Каталонии. А в это время театральная труппа «Ла Клака» репетирует сюрреалистичный спектакль, костюмы к которому придумал Миро, воплотив в материальных вещах сновидческие образы своих полотен. Всё заканчивается праздником – Миро приезжает в свободную от фашистов Барселону и принимает триумф после спектакля.
Доп. информация: Перевод на слух – Марина Радовелюк, тайминг – alex-kin.
Файл взят с Карагарги, за что благодарим fr4nkz4pping.
Предупреждение!
В фильме присутсвует хардсаб во время французских и каталонских реплик.
Сэмпл: http://multi-up.com/1080293
Качество видео: VHSRip
Формат видео: MP4
Видео: MPEG-4 Visual at 1299 kbps, 0.125 bit/pixel, 720x576 at 25 fps
Аудио: MPEG Audio at 160.00 kbps, 2 ch, 44,1 kHz
Формат субтитров: softsub (SRT)

MediaInfo

Формат : DivX
Формат/Информация : Hack of AVI
Размер файла : 587 Мбайт
Продолжительность : 55 м.
Общий поток : 1469 Кбит/сек
Видео
Идентификатор : 0
Формат : MPEG-4 Visual
Параметр BVOP формата : 1
Параметр QPel формата : Нет
Параметр GMC формата : Без точки перехода
Параметр матрицы формата : Default (H.263)
Режим смешивания : Сжатый битовый поток
Идентификатор кодека : DX50
Идентификатор кодека/Подсказка : DivX 5
Продолжительность : 55 м.
Битрейт : 1299 Кбит/сек
Ширина : 720 пикс.
Высота : 576 пикс.
Соотношение сторон : 5:4
Частота кадров : 25,000 кадр/сек
Стандарт вещания : PAL
Цветовое пространство : YUV
Подвыборка цветности : 4:2:0
Битовая глубина : 8 бит
Тип развёртки : Прогрессивная
Метод сжатия : С потерями
Бит/(Пиксели*Кадры) : 0.125
Размер потока : 519 Мбайт (88%)
Библиотека кодирования : DivX 2310
Аудио
Идентификатор : 1
Формат : MPEG Audio
Версия формата : Version 1
Профиль формата : Layer 3
Режим : Joint stereo
Расширение режима : MS Stereo
Идентификатор кодека : 55
Идентификатор кодека/Подсказка : MP3
Продолжительность : 55 м.
Вид битрейта : Постоянный
Битрейт : 160 Кбит/сек
Канал(ы) : 2 канала(ов)
Частота : 44,1 КГц
Метод сжатия : С потерями
Размер потока : 64,0 Мбайт (11%)
Выравнивание : Разделение по промежуткам
Продолжительность промежутка : 40 мс. (1,00 видеокадр)
Время предзагрузки промежутка : 500 ms
Заголовок : Audio

Фрагмент субтитров

1
00:00:20,320 --> 00:00:23,600
МИРО
2
00:00:26,480 --> 00:00:30,975
Театр сновидений
3
00:00:32,520 --> 00:00:36,640
Сценарист и рассказчик
Роланд Пенроуз
4
00:00:41,800 --> 00:00:42,840
Рассвет.
5
00:00:43,480 --> 00:00:46,200
Кажется, на острове
что-то происходит:
6
00:00:47,000 --> 00:00:50,440
как будто по волшебству
что-то просыпается к жизни.
7
00:01:16,920 --> 00:01:21,040
Эта странная шумная толпа возникла
из воображения одного человека,
8
00:01:21,600 --> 00:01:25,640
человека, чьё искусство раскрывает
внутренний мир его снов.
9
00:01:26,120 --> 00:01:28,760
Это испанский художник Хуан Миро.
10
00:01:35,440 --> 00:01:39,040
Миро - один из великих мастеров
искусства 20 столетия.
11
00:01:40,080 --> 00:01:41,840
Вот и он сам - ему 85 лет,
12
00:01:41,920 --> 00:01:43,760
работает в Пальме, на Майорке,
13
00:01:43,880 --> 00:01:46,400
с группой молодых актеров
из материковой части [Испании].
14
00:01:51,600 --> 00:01:53,960
Вместе они создали дивертисмент,
15
00:01:54,040 --> 00:01:56,360
своего рода спектакль,
который можно поставить где угодно.
16
00:02:00,920 --> 00:02:04,520
Это нечто совершенно новое
для актёров и для Миро.
17
00:02:04,800 --> 00:02:07,040
Впервые он делает что-то подобное -
18
00:02:07,280 --> 00:02:11,040
с тех пор, как работал с Дягилевым
и русским балетом в 20-х.
19
00:02:13,040 --> 00:02:15,200
Это было замечательным временем,
чтобы снова наведаться к нему.
20
00:02:15,280 --> 00:02:17,480
Восхитительный момент: наблюдать,
как он работает с актерами
21
00:02:17,520 --> 00:02:19,240
и как работает в одиночку.

Скриншот c названием фильма

Скриншоты

[teatrix.ru].t12344.torrent 
Торрент: Зарегистрирован [ 2015-12-22 23:35 ] · EE575FC731652CE54284EC75F6394A186236996A

Скачать .torrent

Скачать

12 KB

Статус: проверено
Скачан: 0 раз
Размер: 587 MB
terms.php



Быстрый ответ

Имя:

      
Для отправки сообщений необходимо включить JavaScript
Показать сообщения:    

Текущее время: 06-Дек 11:14

Часовой пояс: UTC + 3


Вы можете начинать темы
Вы можете отвечать на сообщения
Вы не можете редактировать свои сообщения
Вы не можете удалять свои сообщения
Вы не можете голосовать в опросах
Вы не можете прикреплять файлы к сообщениям
Вы можете скачивать файлы