(Classical, 20th century) Luciano Berio - Sequenzas I-XIV for Solo Instruments - 2006, FLAC (image+.cue) lossless


 

[Цитировать]

Luciano Berio - Sequenzas I-XIV for Solo Instruments
Жанр: Classical, 20th century
Год издания диска: 2006
Издатель (лейбл): Naxos
Номер по каталогу: 8.557661-63
Дата записи: 1998-2004
Аудиокодек: FLAC
Тип рипа: image+.cue
Битрейт аудио: lossless
Продолжительность: 3:01:59
Источник: собственный рип
Наличие сканов в содержимом раздачи: да
Треклист:
Luciano Berio (1925-2003)
Sequenzas I-XIV

CD1

[1] Sequenza I for flute (1958)
Nora Shulman
[2] Sequenza II for harp (1963)
Erica Goodman
[3] Sequenza III for female voice (1966)
Tony Arnold
[4] Sequenza IV for piano (1966)
Boris Berman
[5] Sequenza V for trombone (1965)
Alain Trudel
[6] Sequenza VI for viola (1967)
Steven Dann
[7] Sequenza VIIa for oboe (1969)
Matej Šarc

CD2

[1] Sequenza VIII for violin (1976)
Jasper Wood
[2] Sequenza IXa for clarinet (1980)
Joaquin Valdepeñas
[3] Sequenza X for trumpet in C and pianoresonance (1984)
Guy Few
[4] Sequenza XI for guitar (1987-88)
Pablo Sáinz Villegas

CD3

[1] Sequenza XII for bassoon (1995)
Ken Munday
[2] Sequenza XIII for accordion (chanson) (1995)
Joseph Petric
[3] Sequenza XIV for cello (2002)
Darrett Adkins
[4] Sequenza VIIb for soprano saxophone (1995)
Wallace Halladay
[5] Sequenza IXb for alto saxophone (1981)
Wallace Halladay
Исполнители:
Nora Shulman Flute
Erica Goodman Harp
Tony Arnold Soprano
Boris Berman Piano
Alain Trudel Trombone
Steven Dann Viola
Matej Šarc Oboe
JasperWood Violin
Joaquin Valdepeñas Clarinet
Guy Few Trumpet
Pablo Sáinz Villegas Guitar
Ken Munday Bassoon
Joseph Petric Accordion
Darrett Adkins Cello
Wallace Halladay Saxophones

Лог создания рипа: CD1

Exact Audio Copy V1.0 beta 3 from 29. August 2011
EAC extraction logfile from 21. November 2014, 21:03
- / Berio - Sequenzas I-XIV - CD1
Used drive : HL-DT-STDVDRAM GU70N Adapter: 0 ID: 0
Read mode : SecureUtilize accurate stream : YesDefeat audio cache : YesMake use of C2 pointers : No
Read offset correction : 48Overread into Lead-In and Lead-Out : NoFill up missing offset samples with silence : YesDelete leading and trailing silent blocks : NoNull samples used in CRC calculations : YesUsed interface : Native Win32 interface for Win NT & 2000
Used output format : User Defined EncoderSelected bitrate : 128 kBit/sQuality : HighAdd ID3 tag : NoCommand line compressor : C:\Program Files (x86)\Exact Audio Copy\Flac\flac.exeAdditional command line options : -V -8 -T "Date=%year%" -T "Genre=%genre%" %source%
TOC of the extracted CD
Track | Start | Length | Start sector | End sector --------------------------------------------------------- 1 | 0:00.00 | 5:19.03 | 0 | 23927 2 | 5:19.03 | 9:22.69 | 23928 | 66146 3 | 14:41.72 | 7:43.26 | 66147 | 100897 4 | 22:25.23 | 10:57.50 | 100898 | 150222 5 | 33:22.73 | 5:32.73 | 150223 | 175195 6 | 38:55.71 | 14:56.52 | 175196 | 242447 7 | 53:52.48 | 9:07.32 | 242448 | 283504
Range status and errors
Selected range
Filename C:\temp\Naxos_8.557661-63 - Berio - Sequenzas I-XIV\CD1\Berio - Sequenzas I-XIV - CD1.wav
Peak level 100.0 % Extraction speed 2.2 X Range quality 100.0 % Test CRC 818958F3 Copy CRC 818958F3 Copy OK
No errors occurred
AccurateRip summary
Track 1 accurately ripped (confidence 4) [39AB297F] (AR v2)Track 2 accurately ripped (confidence 4) [9816CF30] (AR v2)Track 3 accurately ripped (confidence 4) [C7D5080F] (AR v2)Track 4 accurately ripped (confidence 4) [3B75509D] (AR v2)Track 5 accurately ripped (confidence 4) [BA12BC8E] (AR v2)Track 6 accurately ripped (confidence 4) [F4F86684] (AR v2)Track 7 accurately ripped (confidence 4) [32C53526] (AR v2)
All tracks accurately ripped
End of status report
==== Log checksum 1C3A30321B6DF371233E7DE6293882D28C080322879898B6D09DC8FE4B3860EE ====

Лог создания рипа: CD2

Exact Audio Copy V1.0 beta 3 from 29. August 2011
EAC extraction logfile from 21. November 2014, 21:34
- / Berio - Sequenzas I-XIV - CD2
Used drive : HL-DT-STDVDRAM GU70N Adapter: 0 ID: 0
Read mode : SecureUtilize accurate stream : YesDefeat audio cache : YesMake use of C2 pointers : No
Read offset correction : 48Overread into Lead-In and Lead-Out : NoFill up missing offset samples with silence : YesDelete leading and trailing silent blocks : NoNull samples used in CRC calculations : YesUsed interface : Native Win32 interface for Win NT & 2000
Used output format : User Defined EncoderSelected bitrate : 128 kBit/sQuality : HighAdd ID3 tag : NoCommand line compressor : C:\Program Files (x86)\Exact Audio Copy\Flac\flac.exeAdditional command line options : -V -8 -T "Date=%year%" -T "Genre=%genre%" %source%
TOC of the extracted CD
Track | Start | Length | Start sector | End sector --------------------------------------------------------- 1 | 0:00.00 | 12:35.40 | 0 | 56664 2 | 12:35.40 | 14:01.28 | 56665 | 119767 3 | 26:36.68 | 17:10.12 | 119768 | 197029 4 | 43:47.05 | 16:20.04 | 197030 | 270533
Range status and errors
Selected range
Filename C:\temp\Naxos_8.557661-63 - Berio - Sequenzas I-XIV\CD2\Berio - Sequenzas I-XIV - CD2.wav
Peak level 100.0 % Extraction speed 5.3 X Range quality 100.0 % Test CRC BF65F9B2 Copy CRC BF65F9B2 Copy OK
No errors occurred
AccurateRip summary
Track 1 accurately ripped (confidence 4) [526899A4] (AR v2)Track 2 accurately ripped (confidence 4) [07630BF4] (AR v2)Track 3 accurately ripped (confidence 4) [ECB609B7] (AR v2)Track 4 accurately ripped (confidence 4) [AE50CAA1] (AR v2)
All tracks accurately ripped
End of status report
==== Log checksum 553994072F575E01436C0C393B5C220EC1EA756F8A4F8532D93D2B2B951D906D ====

Лог создания рипа: CD3

Exact Audio Copy V1.0 beta 3 from 29. August 2011
EAC extraction logfile from 22. November 2014, 0:34
- / Berio - Sequenzas I-XIV - CD3
Used drive : HL-DT-STDVDRAM GU70N Adapter: 0 ID: 0
Read mode : SecureUtilize accurate stream : YesDefeat audio cache : YesMake use of C2 pointers : No
Read offset correction : 48Overread into Lead-In and Lead-Out : NoFill up missing offset samples with silence : YesDelete leading and trailing silent blocks : NoNull samples used in CRC calculations : YesUsed interface : Native Win32 interface for Win NT & 2000
Used output format : User Defined EncoderSelected bitrate : 128 kBit/sQuality : HighAdd ID3 tag : NoCommand line compressor : C:\Program Files (x86)\Exact Audio Copy\Flac\flac.exeAdditional command line options : -V -8 -T "Date=%year%" -T "Genre=%genre%" %source%
TOC of the extracted CD
Track | Start | Length | Start sector | End sector --------------------------------------------------------- 1 | 0:00.00 | 16:25.45 | 0 | 73919 2 | 16:25.45 | 8:15.34 | 73920 | 111078 3 | 24:41.04 | 13:05.72 | 111079 | 170025 4 | 37:47.01 | 7:15.10 | 170026 | 202660 5 | 45:02.11 | 13:43.40 | 202661 | 264425
Range status and errors
Selected range
Filename C:\temp\Naxos_8.557661-63 - Berio - Sequenzas I-XIV\CD3\Berio - Sequenzas I-XIV - CD3.wav
Peak level 86.0 % Extraction speed 5.1 X Range quality 100.0 % Test CRC E68FAC5A Copy CRC E68FAC5A Copy OK
No errors occurred
AccurateRip summary
Track 1 accurately ripped (confidence 4) [BCD4DEB0] (AR v2)Track 2 accurately ripped (confidence 4) [C62593B7] (AR v2)Track 3 accurately ripped (confidence 4) [3DCFBAF3] (AR v2)Track 4 accurately ripped (confidence 4) [1904DB5D] (AR v2)Track 5 accurately ripped (confidence 4) [DC1A67FF] (AR v2)
All tracks accurately ripped
End of status report
==== Log checksum 8B463C362BC1DD09B4B37EF0907C3499BEED3F7E278A087FDA1D450E66F31CD2 ====



Показать сообщения:    

Текущее время: 03-Дек 09:46

Часовой пояс: UTC + 3


Вы не можете начинать темы
Вы не можете отвечать на сообщения
Вы не можете редактировать свои сообщения
Вы не можете удалять свои сообщения
Вы не можете голосовать в опросах
Вы не можете прикреплять файлы к сообщениям
Вы не можете скачивать файлы