(Score) Звёздные войны: Пробуждение силы / Star Wars: The Force Awakens (by John Williams) - 2015, FLAC (tracks+.cue), lossless


Статистика раздачи [Обновить пиров]
Размер:  386 MB   |    Зарегистрирован:  11 месяцев 11 дней   |    Скачан:  0 раз

Полного источника не было: Никогда

Личеров:  2  [  0 KB/s  ]   Подробная статистика пиров
 
   
 
 
 

[Цитировать]

Звёздные войны: Пробуждение силы Star Wars: The Force Awakens-Жанр: Score
Композитор: John Williams
Год выпуска диска: 2015
Производитель диска: USA
Издатель (лейбл): Walt Disney Records
Номер по каталогу: D002177202-Аудиокодек: FLAC (*.flac)
Тип рипа: tracks+.cue
Битрейт аудио: lossless
Продолжительность: 01:17:52
Источник: what.cd / LastSilmaril
Наличие сканов в содержимом раздачи: нет

Треклист

1. Main Title And The Attack On The Jakku Village (06:25)
2. The Scavenger (03:39)
3. I Can Fly Anything (03:11)
4. Rey Meets BB-8 (01:31)
5. Follow Me (02:54)
6. Rey's Theme (03:11)
7. The Falcon (03:32)
8. That Girl With The Staff (01:58)
9. The Rathtars (04:05)
10. Finn's Confession (02:08)
11. Maz's Counsel (03:07)
12. The Starkiller (01:51)
13. Kylo Ren Arrives At The Battle (02:01)
14. The Abduction (02:25)
15. Han And Leia (04:41)
16. March Of The Resistance (02:35)
17. Snoke (02:03)
18. On The Inside (02:05)
19. Torn Apart (04:19)
20. The Ways Of The Force (03:14)
21. Scherzo For X-Wings (02:32)
22. Farewell And The Trip (04:55)
23. The Jedi Steps And Finale (08:51)

Лог создания рипа

Exact Audio Copy V1.0 beta 3 from 29. August 2011
EAC extraction logfile from 18. December 2015, 15:48
John Williams / Star Wars: The Force Awakens
Used drive : PIONEER BD-RW BDR-208M Adapter: 0 ID: 0
Read mode : SecureUtilize accurate stream : YesDefeat audio cache : YesMake use of C2 pointers : No
Read offset correction : 667Overread into Lead-In and Lead-Out : NoFill up missing offset samples with silence : YesDelete leading and trailing silent blocks : NoNull samples used in CRC calculations : YesUsed interface : Installed external ASPI interfaceGap handling : Appended to previous track
Used output format : User Defined EncoderSelected bitrate : 768 kBit/sQuality : HighAdd ID3 tag : NoCommand line compressor : C:\Program Files (x86)\Exact Audio Copy\FLAC\FLAC.EXEAdditional command line options : -6 -V -T "ARTIST=%artist%" -T "TITLE=%title%" -T "ALBUM=%albumtitle%" -T "DATE=%year%"-T "TRACKNUMBER=%tracknr%" -T "GENRE=%genre%" -T "COMMENT=%comment%" -T "BAND=%albuminterpret%" -T "ALBUMARTIST=%albuminterpret%"-T "COMPOSER=%composer%" %haslyrics%--tag-from-file=LYRICS="%lyricsfile%"%haslyrics% -T "DISCNUMBER=%cdnumber%" -T "TOTALDISCS=%totalcds%"-T "TOTALTRACKS=%numtracks%" %hascover%--picture="%coverfile%"%hascover% %source% -o %dest%
TOC of the extracted CD
Track | Start | Length | Start sector | End sector --------------------------------------------------------- 1 | 0:00.00 | 6:27.20 | 0 | 29044 2 | 6:27.20 | 3:42.46 | 29045 | 45740 3 | 10:09.66 | 3:13.00 | 45741 | 60215 4 | 13:22.66 | 1:32.61 | 60216 | 67176 5 | 14:55.52 | 2:56.35 | 67177 | 80411 6 | 17:52.12 | 3:12.14 | 80412 | 94825 7 | 21:04.26 | 3:34.72 | 94826 | 110947 8 | 24:39.23 | 1:58.69 | 110948 | 119866 9 | 26:38.17 | 4:07.59 | 119867 | 138450 10 | 30:46.01 | 2:09.21 | 138451 | 148146 11 | 32:55.22 | 3:08.43 | 148147 | 162289 12 | 36:03.65 | 1:51.38 | 162290 | 170652 13 | 37:55.28 | 2:01.36 | 170653 | 179763 14 | 39:56.64 | 2:25.25 | 179764 | 190663 15 | 42:22.14 | 4:45.43 | 190664 | 212081 16 | 47:07.57 | 2:36.29 | 212082 | 223810 17 | 49:44.11 | 2:03.42 | 223811 | 233077 18 | 51:47.53 | 2:06.36 | 233078 | 242563 19 | 53:54.14 | 4:20.09 | 242564 | 262072 20 | 58:14.23 | 3:16.23 | 262073 | 276795 21 | 61:30.46 | 2:33.28 | 276796 | 288298 22 | 64:03.74 | 4:57.14 | 288299 | 310587 23 | 69:01.13 | 8:51.44 | 310588 | 350456
Track 1
Filename D:\Ripping\Music\Star Wars - The Force Awakens [FLAC]\01 - Main Title and the Attack on the Jakku Village.wav
Pre-gap length 0:00:02.00
Peak level 94.6 % Extraction speed 5.4 X Track quality 100.0 % Test CRC D8DDE1AA Copy CRC D8DDE1AA Track not present in AccurateRip database Copy OK
Track 2
Filename D:\Ripping\Music\Star Wars - The Force Awakens [FLAC]\02 - The Scavenger.wav
Pre-gap length 0:00:01.26
Peak level 76.0 % Extraction speed 5.6 X Track quality 100.0 % Test CRC 9B0982CE Copy CRC 9B0982CE Track not present in AccurateRip database Copy OK
Track 3
Filename D:\Ripping\Music\Star Wars - The Force Awakens [FLAC]\03 - I Can Fly Anything.wav
Pre-gap length 0:00:02.51
Peak level 94.8 % Extraction speed 5.7 X Track quality 100.0 % Test CRC 54AA5C55 Copy CRC 54AA5C55 Track not present in AccurateRip database Copy OK
Track 4
Filename D:\Ripping\Music\Star Wars - The Force Awakens [FLAC]\04 - Rey Meets BB-8.wav
Pre-gap length 0:00:02.00
Peak level 94.2 % Extraction speed 5.1 X Track quality 100.0 % Test CRC 0F918564 Copy CRC 0F918564 Track not present in AccurateRip database Copy OK
Track 5
Filename D:\Ripping\Music\Star Wars - The Force Awakens [FLAC]\05 - Follow Me.wav
Pre-gap length 0:00:01.43
Peak level 94.4 % Extraction speed 6.1 X Track quality 100.0 % Test CRC E772019E Copy CRC E772019E Track not present in AccurateRip database Copy OK
Track 6
Filename D:\Ripping\Music\Star Wars - The Force Awakens [FLAC]\06 - Rey's Theme.wav
Pre-gap length 0:00:01.48
Peak level 94.3 % Extraction speed 6.4 X Track quality 100.0 % Test CRC 7C4B0E34 Copy CRC 7C4B0E34 Track not present in AccurateRip database Copy OK
Track 7
Filename D:\Ripping\Music\Star Wars - The Force Awakens [FLAC]\07 - The Falcon.wav
Pre-gap length 0:00:01.09
Peak level 94.4 % Extraction speed 6.6 X Track quality 100.0 % Test CRC 47F48D10 Copy CRC 47F48D10 Track not present in AccurateRip database Copy OK
Track 8
Filename D:\Ripping\Music\Star Wars - The Force Awakens [FLAC]\08 - That Girl with the Staff.wav
Pre-gap length 0:00:02.35
Peak level 94.3 % Extraction speed 6.3 X Track quality 100.0 % Test CRC 3C4F5A08 Copy CRC 3C4F5A08 Track not present in AccurateRip database Copy OK
Track 9
Filename D:\Ripping\Music\Star Wars - The Force Awakens [FLAC]\09 - The Rathtars!.wav
Pre-gap length 0:00:00.14
Peak level 94.4 % Extraction speed 7.3 X Track quality 100.0 % Test CRC C2966679 Copy CRC C2966679 Track not present in AccurateRip database Copy OK
Track 10
Filename D:\Ripping\Music\Star Wars - The Force Awakens [FLAC]\10 - Finn's Confession.wav
Pre-gap length 0:00:02.20
Peak level 92.6 % Extraction speed 6.7 X Track quality 100.0 % Test CRC 2B04C9E1 Copy CRC 2B04C9E1 Track not present in AccurateRip database Copy OK
Track 11
Filename D:\Ripping\Music\Star Wars - The Force Awakens [FLAC]\11 - Maz's Counsel.wav
Pre-gap length 0:00:00.41
Peak level 94.3 % Extraction speed 6.3 X Track quality 99.9 % Test CRC 01CECC68 Copy CRC 01CECC68 Track not present in AccurateRip database Copy OK
Track 12
Filename D:\Ripping\Music\Star Wars - The Force Awakens [FLAC]\12 - The Starkiller.wav
Pre-gap length 0:00:00.54
Peak level 48.6 % Extraction speed 6.7 X Track quality 100.0 % Test CRC 270A60AC Copy CRC 270A60AC Track not present in AccurateRip database Copy OK
Track 13
Filename D:\Ripping\Music\Star Wars - The Force Awakens [FLAC]\13 - Kylo Ren Arrives at the Battle.wav
Pre-gap length 0:00:00.03
Peak level 94.3 % Extraction speed 5.5 X Track quality 99.9 % Test CRC 4E691089 Copy CRC 4E691089 Track not present in AccurateRip database Copy OK
Track 14
Filename D:\Ripping\Music\Star Wars - The Force Awakens [FLAC]\14 - The Abduction.wav
Pre-gap length 0:00:00.03
Peak level 94.4 % Extraction speed 7.3 X Track quality 100.0 % Test CRC B54F5C98 Copy CRC B54F5C98 Track not present in AccurateRip database Copy OK
Track 15
Filename D:\Ripping\Music\Star Wars - The Force Awakens [FLAC]\15 - Han and Leia.wav
Pre-gap length 0:00:00.03
Peak level 91.6 % Extraction speed 8.3 X Track quality 100.0 % Test CRC A99CA3E0 Copy CRC A99CA3E0 Track not present in AccurateRip database Copy OK
Track 16
Filename D:\Ripping\Music\Star Wars - The Force Awakens [FLAC]\16 - March of the Resistance.wav
Pre-gap length 0:00:04.11
Peak level 94.4 % Extraction speed 6.5 X Track quality 99.9 % Test CRC 1F82D5AA Copy CRC 1F82D5AA Track not present in AccurateRip database Copy OK
Track 17
Filename D:\Ripping\Music\Star Wars - The Force Awakens [FLAC]\17 - Snoke.wav
Pre-gap length 0:00:00.36
Peak level 24.9 % Extraction speed 7.5 X Track quality 100.0 % Test CRC 1129E453 Copy CRC 1129E453 Track not present in AccurateRip database Copy OK
Track 18
Filename D:\Ripping\Music\Star Wars - The Force Awakens [FLAC]\18 - On the Inside.wav
Pre-gap length 0:00:00.41
Peak level 94.4 % Extraction speed 6.3 X Track quality 99.9 % Test CRC 9A0C7D41 Copy CRC 9A0C7D41 Track not present in AccurateRip database Copy OK
Track 19
Filename D:\Ripping\Music\Star Wars - The Force Awakens [FLAC]\19 - Torn Apart.wav
Pre-gap length 0:00:00.39
Peak level 94.4 % Extraction speed 8.7 X Track quality 100.0 % Test CRC BF2601FD Copy CRC BF2601FD Track not present in AccurateRip database Copy OK
Track 20
Filename D:\Ripping\Music\Star Wars - The Force Awakens [FLAC]\20 - The Ways of the Force.wav
Pre-gap length 0:00:01.04
Peak level 94.4 % Extraction speed 8.6 X Track quality 100.0 % Test CRC BFE536BB Copy CRC BFE536BB Track not present in AccurateRip database Copy OK
Track 21
Filename D:\Ripping\Music\Star Wars - The Force Awakens [FLAC]\21 - Scherzo for X-Wings.wav
Pre-gap length 0:00:01.26
Peak level 94.4 % Extraction speed 7.1 X Track quality 99.9 % Test CRC 15F1F3F7 Copy CRC 15F1F3F7 Track not present in AccurateRip database Copy OK
Track 22
Filename D:\Ripping\Music\Star Wars - The Force Awakens [FLAC]\22 - Farewell and the Trip.wav
Pre-gap length 0:00:01.17
Peak level 94.4 % Extraction speed 9.5 X Track quality 100.0 % Test CRC 0AF7C5E9 Copy CRC 0AF7C5E9 Track not present in AccurateRip database Copy OK
Track 23
Filename D:\Ripping\Music\Star Wars - The Force Awakens [FLAC]\23 - The Jedi Steps and Finale.wav
Pre-gap length 0:00:01.45
Peak level 95.2 % Extraction speed 2.5 X Track quality 99.9 % Test CRC FE62C1D1 Copy CRC FE62C1D1 Track not present in AccurateRip database Copy OK
None of the tracks are present in the AccurateRip database
No errors occurred
End of status report
---- CUETools DB Plugin V2.1.3
[CTDB TOCID: GKmbAklE6U1eZfQIq0Sa_wRAABg-] found, Submit result: already submitted[0d86a9e7] (35/38) Accurately ripped[f9928365] (01/38) No match[ba4ac197] (01/38) No match[22c196ad] (01/38) No match
==== Log checksum EA057E7D13D01BD62D2F40341F5493C1840595DEB577391E0FD3321BF1FB7654 ====

Содержание индексной карты (.CUE)

REM GENRE SoundtrackREM DATE 2015REM DISCID 78124017REM COMMENT "ExactAudioCopy v1.0b3"PERFORMER "John Williams"TITLE "Star Wars: The Force Awakens"FILE "01 - Main Title and the Attack on the Jakku Village.wav" WAVE TRACK 01 AUDIO TITLE "Main Title and the Attack on the Jakku Village" PERFORMER "John Williams" INDEX 01 00:00:00 TRACK 02 AUDIO TITLE "The Scavenger" PERFORMER "John Williams" INDEX 00 06:25:69FILE "02 - The Scavenger.wav" WAVE INDEX 01 00:00:00 TRACK 03 AUDIO TITLE "I Can Fly Anything" PERFORMER "John Williams" INDEX 00 03:39:70FILE "03 - I Can Fly Anything.wav" WAVE INDEX 01 00:00:00 TRACK 04 AUDIO TITLE "Rey Meets BB-8" PERFORMER "John Williams" INDEX 00 03:11:00FILE "04 - Rey Meets BB-8.wav" WAVE INDEX 01 00:00:00 TRACK 05 AUDIO TITLE "Follow Me" PERFORMER "John Williams" INDEX 00 01:31:18FILE "05 - Follow Me.wav" WAVE INDEX 01 00:00:00 TRACK 06 AUDIO TITLE "Rey's Theme" PERFORMER "John Williams" INDEX 00 02:54:62FILE "06 - Rey's Theme.wav" WAVE INDEX 01 00:00:00 TRACK 07 AUDIO TITLE "The Falcon" PERFORMER "John Williams" INDEX 00 03:11:05FILE "07 - The Falcon.wav" WAVE INDEX 01 00:00:00 TRACK 08 AUDIO TITLE "That Girl with the Staff" PERFORMER "John Williams" INDEX 00 03:32:37FILE "08 - That Girl with the Staff.wav" WAVE INDEX 01 00:00:00 TRACK 09 AUDIO TITLE "The Rathtars!" PERFORMER "John Williams" INDEX 00 01:58:55FILE "09 - The Rathtars!.wav" WAVE INDEX 01 00:00:00 TRACK 10 AUDIO TITLE "Finn's Confession" PERFORMER "John Williams" INDEX 00 04:05:39FILE "10 - Finn's Confession.wav" WAVE INDEX 01 00:00:00 TRACK 11 AUDIO TITLE "Maz's Counsel" PERFORMER "John Williams" INDEX 00 02:08:55FILE "11 - Maz's Counsel.wav" WAVE INDEX 01 00:00:00 TRACK 12 AUDIO TITLE "The Starkiller" PERFORMER "John Williams" INDEX 00 03:07:64FILE "12 - The Starkiller.wav" WAVE INDEX 01 00:00:00 TRACK 13 AUDIO TITLE "Kylo Ren Arrives at the Battle" PERFORMER "John Williams" INDEX 00 01:51:35FILE "13 - Kylo Ren Arrives at the Battle.wav" WAVE INDEX 01 00:00:00 TRACK 14 AUDIO TITLE "The Abduction" PERFORMER "John Williams" INDEX 00 02:01:33FILE "14 - The Abduction.wav" WAVE INDEX 01 00:00:00 TRACK 15 AUDIO TITLE "Han and Leia" PERFORMER "John Williams" INDEX 00 02:25:22FILE "15 - Han and Leia.wav" WAVE INDEX 01 00:00:00 TRACK 16 AUDIO TITLE "March of the Resistance" PERFORMER "John Williams" INDEX 00 04:41:32FILE "16 - March of the Resistance.wav" WAVE INDEX 01 00:00:00 TRACK 17 AUDIO TITLE "Snoke" PERFORMER "John Williams" INDEX 00 02:35:68FILE "17 - Snoke.wav" WAVE INDEX 01 00:00:00 TRACK 18 AUDIO TITLE "On the Inside" PERFORMER "John Williams" INDEX 00 02:03:01FILE "18 - On the Inside.wav" WAVE INDEX 01 00:00:00 TRACK 19 AUDIO TITLE "Torn Apart" PERFORMER "John Williams" INDEX 00 02:05:72FILE "19 - Torn Apart.wav" WAVE INDEX 01 00:00:00 TRACK 20 AUDIO TITLE "The Ways of the Force" PERFORMER "John Williams" INDEX 00 04:19:05FILE "20 - The Ways of the Force.wav" WAVE INDEX 01 00:00:00 TRACK 21 AUDIO TITLE "Scherzo for X-Wings" PERFORMER "John Williams" INDEX 00 03:14:72FILE "21 - Scherzo for X-Wings.wav" WAVE INDEX 01 00:00:00 TRACK 22 AUDIO TITLE "Farewell and the Trip" PERFORMER "John Williams" INDEX 00 02:32:11FILE "22 - Farewell and the Trip.wav" WAVE INDEX 01 00:00:00 TRACK 23 AUDIO TITLE "The Jedi Steps and Finale" PERFORMER "John Williams" INDEX 00 04:55:44FILE "23 - The Jedi Steps and Finale.wav" WAVE INDEX 01 00:00:00
[teatrix.ru].t12348.torrent 
Торрент: Зарегистрирован [ 2015-12-22 23:35 ] · 136AC577BD8FB7555A7CF58C44D10B2B282C61CB

Скачать .torrent

Скачать

17 KB

Статус: проверено
Скачан: 0 раз
Размер: 386 MB
terms.php



Быстрый ответ

Имя:

      
Для отправки сообщений необходимо включить JavaScript
Показать сообщения:    

Текущее время: 03-Дек 22:43

Часовой пояс: UTC + 3


Вы можете начинать темы
Вы можете отвечать на сообщения
Вы не можете редактировать свои сообщения
Вы не можете удалять свои сообщения
Вы не можете голосовать в опросах
Вы не можете прикреплять файлы к сообщениям
Вы можете скачивать файлы