(Score) Версальский роман / A Little Chaos (by Peter Gregson) - 2014, FLAC (tracks+.cue), lossless


Статистика раздачи [Обновить пиров]
Размер:  174 MB   |    Зарегистрирован:  11 месяцев 14 дней   |    Скачан:  0 раз

Полного источника не было: Никогда

 
   
 
 
 

[Цитировать]

Версальский роман / A Little Chaos-Жанр: Score
Композитор: Peter Gregson
Год выпуска диска: 2014
Производитель диска: USA
Издатель (лейбл): Milan
Номер по каталогу: 399 720-2-Аудиокодек: FLAC (*.flac)
Тип рипа: tracks+.cue
Битрейт аудио: lossless
Продолжительность: 00:41:17
Источник: what.cd / karmacreep
Наличие сканов в содержимом раздачи: да

Треклист

01. Sabine (2:41)
02. What Happened (2:05)
03. This Is Your Eden (1:32)
04. The Task Ahead (1:34)
05. Walking Out (1:21)
06. From Paris to the Aquaduct (1:41)
07. It's a Shrine (1:12)
08. Travelling to Marly (3:23)
09. The Sluice Gate (2:55)
10. Don't Ask Me (3:55)
11. When You Are Strong Enough (3:00)
12. Making Love (2:18)
13. Marie-Claire's Toys (1:10)
14. The Music Comes from the Heavens (3:24)
15. A Little Chaos (5:37)
16. End Roller (3:21)

Лог создания рипа

X Lossless Decoder version 20141129 (148.1)
XLD extraction logfile from 2015-07-03 18:03:28 +0200
Peter Gregson / A Little Chaos (Original Score Album)
Used drive : OPTIARC DVD RW AD-5970H (revision 3APE)Media type : Pressed CD
Ripper mode : XLD Secure RipperDisable audio cache : OK for the drive with a cache less than 1375KiBMake use of C2 pointers : NORead offset correction : 48Max retry count : 100Gap status : Analyzed, Appended (except HTOA)
TOC of the extracted CD Track | Start | Length | Start sector | End sector --------------------------------------------------------- 1 | 00:00:00 | 02:41:39 | 0 | 12113 2 | 02:41:39 | 02:06:00 | 12114 | 21563 3 | 04:47:39 | 01:32:73 | 21564 | 28536 4 | 06:20:37 | 01:34:28 | 28537 | 35614 5 | 07:54:65 | 01:21:40 | 35615 | 41729 6 | 09:16:30 | 01:41:49 | 41730 | 49353 7 | 10:58:04 | 01:12:71 | 49354 | 54824 8 | 12:11:00 | 03:23:55 | 54825 | 70104 9 | 15:34:55 | 02:55:40 | 70105 | 83269 10 | 18:30:20 | 03:55:24 | 83270 | 100918 11 | 22:25:44 | 03:00:07 | 100919 | 114425 12 | 25:25:51 | 02:18:05 | 114426 | 124780 13 | 27:43:56 | 01:10:34 | 124781 | 130064 14 | 28:54:15 | 03:24:29 | 130065 | 145393 15 | 32:18:44 | 05:37:35 | 145394 | 170703 16 | 37:56:04 | 03:21:23 | 170704 | 185801
AccurateRip Summary Disc not found in AccurateRip DB.
All Tracks Album gain : -0.11 dB Peak : 0.979828 Statistics Read error : 0 Jitter error (maybe fixed) : 0 Retry sector count : 0 Damaged sector count : 0
Track 01 Filename : /Users/Mathildesboobs/Music/Peter Gregson - A Little Chaos (Original Score Album) (2015) [FLAC]/01 Sabine.flac Pre-gap length : 00:02:00
Track gain : 8.60 dB Peak : 0.372040 CRC32 hash (test run) : C2A76DC3 CRC32 hash : C2A76DC3 CRC32 hash (skip zero) : CB6057F1 AccurateRip v1 signature : 9B0BDC9E AccurateRip v2 signature : 76103D0A ->Track not present in AccurateRip database. Statistics Read error : 0 Jitter error (maybe fixed) : 0 Retry sector count : 0 Damaged sector count : 0
Track 02 Filename : /Users/Mathildesboobs/Music/Peter Gregson - A Little Chaos (Original Score Album) (2015) [FLAC]/02 What Happened.flac
Track gain : 1.64 dB Peak : 0.640503 CRC32 hash (test run) : EDA3B77A CRC32 hash : EDA3B77A CRC32 hash (skip zero) : 1D5464EC AccurateRip v1 signature : C56E7558 AccurateRip v2 signature : 213FF59E ->Track not present in AccurateRip database. Statistics Read error : 0 Jitter error (maybe fixed) : 0 Retry sector count : 0 Damaged sector count : 0
Track 03 Filename : /Users/Mathildesboobs/Music/Peter Gregson - A Little Chaos (Original Score Album) (2015) [FLAC]/03 This is Your Eden.flac
Track gain : 10.24 dB Peak : 0.235077 CRC32 hash (test run) : 409CF6FA CRC32 hash : 409CF6FA CRC32 hash (skip zero) : 72B1D42B AccurateRip v1 signature : 55A29B7F AccurateRip v2 signature : D30979E4 ->Track not present in AccurateRip database. Statistics Read error : 0 Jitter error (maybe fixed) : 0 Retry sector count : 0 Damaged sector count : 0
Track 04 Filename : /Users/Mathildesboobs/Music/Peter Gregson - A Little Chaos (Original Score Album) (2015) [FLAC]/04 The Task Ahead.flac
Track gain : 2.26 dB Peak : 0.758301 CRC32 hash (test run) : CF0A1441 CRC32 hash : CF0A1441 CRC32 hash (skip zero) : 33FD3165 AccurateRip v1 signature : 193E8883 AccurateRip v2 signature : C7B711A8 ->Track not present in AccurateRip database. Statistics Read error : 0 Jitter error (maybe fixed) : 0 Retry sector count : 0 Damaged sector count : 0
Track 05 Filename : /Users/Mathildesboobs/Music/Peter Gregson - A Little Chaos (Original Score Album) (2015) [FLAC]/05 Walking Out.flac
Track gain : 4.87 dB Peak : 0.411591 CRC32 hash (test run) : E54AC101 CRC32 hash : E54AC101 CRC32 hash (skip zero) : 0628FBA8 AccurateRip v1 signature : 649B7DF0 AccurateRip v2 signature : 297C1F2B ->Track not present in AccurateRip database. Statistics Read error : 0 Jitter error (maybe fixed) : 0 Retry sector count : 0 Damaged sector count : 0
Track 06 Filename : /Users/Mathildesboobs/Music/Peter Gregson - A Little Chaos (Original Score Album) (2015) [FLAC]/06 From Paris to the Aquaduct.flac
Track gain : 2.99 dB Peak : 0.492523 CRC32 hash (test run) : 8A2139E1 CRC32 hash : 8A2139E1 CRC32 hash (skip zero) : 69B17EDA AccurateRip v1 signature : 5C5459EB AccurateRip v2 signature : 6649FF12 ->Track not present in AccurateRip database. Statistics Read error : 0 Jitter error (maybe fixed) : 0 Retry sector count : 0 Damaged sector count : 0
Track 07 Filename : /Users/Mathildesboobs/Music/Peter Gregson - A Little Chaos (Original Score Album) (2015) [FLAC]/07 It's a Shrine.flac
Track gain : 8.90 dB Peak : 0.174011 CRC32 hash (test run) : 4F045CDB CRC32 hash : 4F045CDB CRC32 hash (skip zero) : 17BB40BC AccurateRip v1 signature : 45CCCC5E AccurateRip v2 signature : E7EA2501 ->Track not present in AccurateRip database. Statistics Read error : 0 Jitter error (maybe fixed) : 0 Retry sector count : 0 Damaged sector count : 0
Track 08 Filename : /Users/Mathildesboobs/Music/Peter Gregson - A Little Chaos (Original Score Album) (2015) [FLAC]/08 Travelling to Marly.flac
Track gain : 1.91 dB Peak : 0.520111 CRC32 hash (test run) : 4F5E1029 CRC32 hash : 4F5E1029 CRC32 hash (skip zero) : CADD520D AccurateRip v1 signature : 7781351A AccurateRip v2 signature : 021AB699 ->Track not present in AccurateRip database. Statistics Read error : 0 Jitter error (maybe fixed) : 0 Retry sector count : 0 Damaged sector count : 0
Track 09 Filename : /Users/Mathildesboobs/Music/Peter Gregson - A Little Chaos (Original Score Album) (2015) [FLAC]/09 The Sluice Gate.flac
Track gain : -0.67 dB Peak : 0.975555 CRC32 hash (test run) : 275BDCDB CRC32 hash : 275BDCDB CRC32 hash (skip zero) : F9EA3A51 AccurateRip v1 signature : 3B4E7325 AccurateRip v2 signature : 333475D2 ->Track not present in AccurateRip database. Statistics Read error : 0 Jitter error (maybe fixed) : 0 Retry sector count : 0 Damaged sector count : 0
Track 10 Filename : /Users/Mathildesboobs/Music/Peter Gregson - A Little Chaos (Original Score Album) (2015) [FLAC]/10 Don't Ask Me.flac
Track gain : 6.83 dB Peak : 0.405121 CRC32 hash (test run) : 692D5336 CRC32 hash : 692D5336 CRC32 hash (skip zero) : 33B58D97 AccurateRip v1 signature : 686DF2F2 AccurateRip v2 signature : 85E42415 ->Track not present in AccurateRip database. Statistics Read error : 0 Jitter error (maybe fixed) : 0 Retry sector count : 0 Damaged sector count : 0
Track 11 Filename : /Users/Mathildesboobs/Music/Peter Gregson - A Little Chaos (Original Score Album) (2015) [FLAC]/11 When You Are Strong Enough.flac
Track gain : 9.83 dB Peak : 0.308624 CRC32 hash (test run) : 013B6486 CRC32 hash : 013B6486 CRC32 hash (skip zero) : D6CC3A7C AccurateRip v1 signature : DCA5DDC5 AccurateRip v2 signature : 85EF2B25 ->Track not present in AccurateRip database. Statistics Read error : 0 Jitter error (maybe fixed) : 0 Retry sector count : 0 Damaged sector count : 0
Track 12 Filename : /Users/Mathildesboobs/Music/Peter Gregson - A Little Chaos (Original Score Album) (2015) [FLAC]/12 Making Love.flac
Track gain : 2.21 dB Peak : 0.743958 CRC32 hash (test run) : 79B54F03 CRC32 hash : 79B54F03 CRC32 hash (skip zero) : E7D14A36 AccurateRip v1 signature : C9B5FDFA AccurateRip v2 signature : DD066C0C ->Track not present in AccurateRip database. Statistics Read error : 0 Jitter error (maybe fixed) : 0 Retry sector count : 0 Damaged sector count : 0
Track 13 Filename : /Users/Mathildesboobs/Music/Peter Gregson - A Little Chaos (Original Score Album) (2015) [FLAC]/13 Marie-Claire's Toys.flac
Track gain : 19.78 dB Peak : 0.079590 CRC32 hash (test run) : A43BB276 CRC32 hash : A43BB276 CRC32 hash (skip zero) : BC1FDA56 AccurateRip v1 signature : C77F1B74 AccurateRip v2 signature : 5F5FC92F ->Track not present in AccurateRip database. Statistics Read error : 0 Jitter error (maybe fixed) : 0 Retry sector count : 0 Damaged sector count : 0
Track 14 Filename : /Users/Mathildesboobs/Music/Peter Gregson - A Little Chaos (Original Score Album) (2015) [FLAC]/14 The Music Comes From the Heavens.flac
Track gain : 2.54 dB Peak : 0.811401 CRC32 hash (test run) : 539ECA47 CRC32 hash : 539ECA47 CRC32 hash (skip zero) : 73D07892 AccurateRip v1 signature : D9CDB32F AccurateRip v2 signature : 26EA53EF ->Track not present in AccurateRip database. Statistics Read error : 0 Jitter error (maybe fixed) : 0 Retry sector count : 0 Damaged sector count : 0
Track 15 Filename : /Users/Mathildesboobs/Music/Peter Gregson - A Little Chaos (Original Score Album) (2015) [FLAC]/15 A Little Chaos.flac
Track gain : -2.93 dB Peak : 0.979828 CRC32 hash (test run) : A2BCD842 CRC32 hash : A2BCD842 CRC32 hash (skip zero) : 3D719A7C AccurateRip v1 signature : C019581D AccurateRip v2 signature : 648D6554 ->Track not present in AccurateRip database. Statistics Read error : 0 Jitter error (maybe fixed) : 0 Retry sector count : 0 Damaged sector count : 0
Track 16 Filename : /Users/Mathildesboobs/Music/Peter Gregson - A Little Chaos (Original Score Album) (2015) [FLAC]/16 End Roller.flac
Track gain : 14.91 dB Peak : 0.231201 CRC32 hash (test run) : D833BC04 CRC32 hash : D833BC04 CRC32 hash (skip zero) : C06D826F AccurateRip v1 signature : E5872EB0 AccurateRip v2 signature : B8C56963 ->Track not present in AccurateRip database. Statistics Read error : 0 Jitter error (maybe fixed) : 0 Retry sector count : 0 Damaged sector count : 0
No errors occurred
End of status report
-----BEGIN XLD SIGNATURE-----XauR_KS_iVH9A6AwwAUaTf61Ssmj_lvwqrZ21a7LScZ2RR6bDfFTnoSeBmFWk5XCZPaNwIpa6tyxG0AnMKlVFyCvl7Kd.duqi4xQWSe-----END XLD SIGNATURE-----

Содержание индексной карты (.CUE)

TITLE "A Little Chaos (Original Score Album)"PERFORMER "Peter Gregson"CATALOG 0731383673320REM GENRE "Soundtrack"REM DATE "2015"REM DISCNUMBER 1REM TOTALDISCS 2REM DISCID E109AD10REM REPLAYGAIN_ALBUM_GAIN -0.11 dBREM REPLAYGAIN_ALBUM_PEAK 0.979828FILE "01 Sabine.flac" WAVE TRACK 01 AUDIO TITLE "Sabine" SONGWRITER "Peter Gregson" ISRC US5941405449 REM REPLAYGAIN_TRACK_GAIN 8.60 dB REM REPLAYGAIN_TRACK_PEAK 0.372040 INDEX 01 00:00:00FILE "02 What Happened.flac" WAVE TRACK 02 AUDIO TITLE "What Happened" SONGWRITER "Peter Gregson" ISRC US5941405450 REM REPLAYGAIN_TRACK_GAIN 1.64 dB REM REPLAYGAIN_TRACK_PEAK 0.640503 INDEX 01 00:00:00FILE "03 This is Your Eden.flac" WAVE TRACK 03 AUDIO TITLE "This is Your Eden" SONGWRITER "Peter Gregson" ISRC US5941405451 REM REPLAYGAIN_TRACK_GAIN 10.24 dB REM REPLAYGAIN_TRACK_PEAK 0.235077 INDEX 01 00:00:00FILE "04 The Task Ahead.flac" WAVE TRACK 04 AUDIO TITLE "The Task Ahead" SONGWRITER "Peter Gregson" ISRC US5941405452 REM REPLAYGAIN_TRACK_GAIN 2.26 dB REM REPLAYGAIN_TRACK_PEAK 0.758301 INDEX 01 00:00:00FILE "05 Walking Out.flac" WAVE TRACK 05 AUDIO TITLE "Walking Out" SONGWRITER "Peter Gregson" ISRC US5941405453 REM REPLAYGAIN_TRACK_GAIN 4.87 dB REM REPLAYGAIN_TRACK_PEAK 0.411591 INDEX 01 00:00:00FILE "06 From Paris to the Aquaduct.flac" WAVE TRACK 06 AUDIO TITLE "From Paris to the Aquaduct" SONGWRITER "Peter Gregson" ISRC US5941405454 REM REPLAYGAIN_TRACK_GAIN 2.99 dB REM REPLAYGAIN_TRACK_PEAK 0.492523 INDEX 01 00:00:00FILE "07 It's a Shrine.flac" WAVE TRACK 07 AUDIO TITLE "It's a Shrine" SONGWRITER "Peter Gregson" ISRC US5941405455 REM REPLAYGAIN_TRACK_GAIN 8.90 dB REM REPLAYGAIN_TRACK_PEAK 0.174011 INDEX 01 00:00:00FILE "08 Travelling to Marly.flac" WAVE TRACK 08 AUDIO TITLE "Travelling to Marly" SONGWRITER "Peter Gregson" ISRC US5941405456 REM REPLAYGAIN_TRACK_GAIN 1.91 dB REM REPLAYGAIN_TRACK_PEAK 0.520111 INDEX 01 00:00:00FILE "09 The Sluice Gate.flac" WAVE TRACK 09 AUDIO TITLE "The Sluice Gate" SONGWRITER "Peter Gregson" ISRC US5941405457 REM REPLAYGAIN_TRACK_GAIN -0.67 dB REM REPLAYGAIN_TRACK_PEAK 0.975555 INDEX 01 00:00:00FILE "10 Don't Ask Me.flac" WAVE TRACK 10 AUDIO TITLE "Don't Ask Me" SONGWRITER "Peter Gregson" ISRC US5941405458 REM REPLAYGAIN_TRACK_GAIN 6.83 dB REM REPLAYGAIN_TRACK_PEAK 0.405121 INDEX 01 00:00:00FILE "11 When You Are Strong Enough.flac" WAVE TRACK 11 AUDIO TITLE "When You Are Strong Enough" SONGWRITER "Peter Gregson" ISRC US5941405459 REM REPLAYGAIN_TRACK_GAIN 9.83 dB REM REPLAYGAIN_TRACK_PEAK 0.308624 INDEX 01 00:00:00FILE "12 Making Love.flac" WAVE TRACK 12 AUDIO TITLE "Making Love" SONGWRITER "Peter Gregson" ISRC US5941405460 REM REPLAYGAIN_TRACK_GAIN 2.21 dB REM REPLAYGAIN_TRACK_PEAK 0.743958 INDEX 01 00:00:00FILE "13 Marie-Claire's Toys.flac" WAVE TRACK 13 AUDIO TITLE "Marie-Claire's Toys" SONGWRITER "Peter Gregson" ISRC US5941405461 REM REPLAYGAIN_TRACK_GAIN 19.78 dB REM REPLAYGAIN_TRACK_PEAK 0.079590 INDEX 01 00:00:00FILE "14 The Music Comes From the Heavens.flac" WAVE TRACK 14 AUDIO TITLE "The Music Comes From the Heavens" SONGWRITER "Peter Gregson" ISRC US5941405462 REM REPLAYGAIN_TRACK_GAIN 2.54 dB REM REPLAYGAIN_TRACK_PEAK 0.811401 INDEX 01 00:00:00FILE "15 A Little Chaos.flac" WAVE TRACK 15 AUDIO TITLE "A Little Chaos" SONGWRITER "Peter Gregson" ISRC US5941405463 REM REPLAYGAIN_TRACK_GAIN -2.93 dB REM REPLAYGAIN_TRACK_PEAK 0.979828 INDEX 01 00:00:00FILE "16 End Roller.flac" WAVE TRACK 16 AUDIO TITLE "End Roller" SONGWRITER "Peter Gregson" ISRC US5941405464 REM REPLAYGAIN_TRACK_GAIN 14.91 dB REM REPLAYGAIN_TRACK_PEAK 0.231201 INDEX 01 00:00:00
[teatrix.ru].t12349.torrent 
Торрент: Зарегистрирован [ 2015-12-22 23:35 ] · EB0F73AB9B3959FC3A5D3D7846AA3C5A4C17059A

Скачать .torrent

Скачать

15 KB

Статус: проверено
Скачан: 0 раз
Размер: 174 MB
terms.php



Быстрый ответ

Имя:

      
Для отправки сообщений необходимо включить JavaScript
Показать сообщения:    

Текущее время: 06-Дек 13:12

Часовой пояс: UTC + 3


Вы можете начинать темы
Вы можете отвечать на сообщения
Вы не можете редактировать свои сообщения
Вы не можете удалять свои сообщения
Вы не можете голосовать в опросах
Вы не можете прикреплять файлы к сообщениям
Вы можете скачивать файлы