(Score) Пик Данте / Dante's Peak (by John Frizzell & James Newton Howard) - 1997, FLAC (tracks+.cue), lossless


Статистика раздачи [Обновить пиров]
Размер:  176 MB   |    Зарегистрирован:  11 месяцев 11 дней   |    Скачан:  0 раз

Полного источника не было: 6 месяцев 26 дней

 
   
 
 
 

[Цитировать]

Пик Данте / Dante's Peak-Жанр: Score
Композитор: John Frizzell & James Newton Howard
Год выпуска диска: 1997
Производитель диска: P&O, Germany
Издатель (лейбл): Varèse Sarabande
Номер по каталогу: VSD 5793-Аудиокодек: FLAC (*.flac)
Тип рипа: tracks+.cue
Битрейт аудио: lossless
Продолжительность: 00:30:25
Источник: собственный рип
Наличие сканов в содержимом раздачи: да, 600 dpi-Ссылки: Кинопоиск | IMDB | [url=https://en.wikipedia.org/wiki/Dante's_Peak]Wikipedia[/url] | SoundtrackCollector
MP3: (Score) Пик Данте / Dante's Peak (by John Frizzell & James Newton Howard) - 1997, MP3 (tracks) 320 kbps

Треклист

01. James Newton Howard / Main Titles [0:05:30.03]
02. John Frizzell / The Close Call [0:01:42.70]
03. John Frizzell / Trapped In The Crater [0:05:03.27]
04. John Frizzell / On The Porch [0:02:31.05]
05. John Frizzell / The Evacuation Begins [0:04:11.68]
06. John Frizzell / The Helicopter Crash [0:01:27.70]
07. John Frizzell / Escaping The Burning House [0:02:32.07]
08. John Frizzell / Sinking On Acid Lake [0:02:37.00]
09. John Frizzell / Stuck In The Lava [0:01:44.05]
10. John Frizzell / The Rescue [0:03:05.00]

Лог создания рипа

Exact Audio Copy V1.1 from 23. June 2015
EAC extraction logfile from 20. December 2015, 22:03
John Frizzell & James Newton Howard / Dante's Peak
Used drive : PLEXTOR CD-R PX-230A Adapter: 1 ID: 2
Read mode : SecureUtilize accurate stream : YesDefeat audio cache : YesMake use of C2 pointers : No
Read offset correction : 738Overread into Lead-In and Lead-Out : NoFill up missing offset samples with silence : YesDelete leading and trailing silent blocks : NoNull samples used in CRC calculations : YesUsed interface : Native Win32 interface for Win NT & 2000Gap handling : Appended to previous track
Used output format : User Defined EncoderSelected bitrate : 1024 kBit/sQuality : HighAdd ID3 tag : NoCommand line compressor : C:\Program Files (x86)\Exact Audio Copy\FLAC\FLAC.EXEAdditional command line options : -6 -V -T "ARTIST=%artist%" -T "TITLE=%title%" -T "ALBUM=%albumtitle%" -T "DATE=%year%"-T "TRACKNUMBER=%tracknr%" -T "GENRE=%genre%" -T "COMMENT=%comment%" -T "ALBUMARTIST=%albuminterpret%" -T "COMPOSER=%composer%"-T "DISCNUMBER=%cdnumber%" -T "TOTALDISCS=%totalcds%" -T "TOTALTRACKS=%numtracks%" %source% -o %dest%
TOC of the extracted CD
Track | Start | Length | Start sector | End sector --------------------------------------------------------- 1 | 0:00.00 | 5:30.03 | 0 | 24752 2 | 5:30.03 | 1:42.70 | 24753 | 32472 3 | 7:12.73 | 5:03.27 | 32473 | 55224 4 | 12:16.25 | 2:31.05 | 55225 | 66554 5 | 14:47.30 | 4:11.68 | 66555 | 85447 6 | 18:59.23 | 1:27.70 | 85448 | 92042 7 | 20:27.18 | 2:32.07 | 92043 | 103449 8 | 22:59.25 | 2:37.00 | 103450 | 115224 9 | 25:36.25 | 1:44.05 | 115225 | 123029 10 | 27:20.30 | 3:05.00 | 123030 | 136904
Track 1
Filename C:\Music\01 - James Newton Howard - Main Titles.wav
Pre-gap length 0:00:02.00
Peak level 91.6 % Extraction speed 7.2 X Track quality 100.0 % Test CRC E73B306A Copy CRC E73B306A Accurately ripped (confidence 7) [AC7536AE] (AR v2) Copy OK
Track 2
Filename C:\Music\02 - John Frizzell - The Close Call.wav
Peak level 96.4 % Extraction speed 5.1 X Track quality 99.8 % Test CRC 5F3484DC Copy CRC 5F3484DC Accurately ripped (confidence 7) [EDC70B7C] (AR v2) Copy OK
Track 3
Filename C:\Music\03 - John Frizzell - Trapped In The Crater.wav
Peak level 97.6 % Extraction speed 7.9 X Track quality 100.0 % Test CRC 919B7DD1 Copy CRC 919B7DD1 Accurately ripped (confidence 7) [EFFBC655] (AR v2) Copy OK
Track 4
Filename C:\Music\04 - John Frizzell - On The Porch.wav
Peak level 15.3 % Extraction speed 6.3 X Track quality 99.9 % Test CRC 0C1A6F58 Copy CRC 0C1A6F58 Accurately ripped (confidence 7) [6EC06667] (AR v2) Copy OK
Track 5
Filename C:\Music\05 - John Frizzell - The Evacuation Begins.wav
Peak level 97.6 % Extraction speed 8.7 X Track quality 100.0 % Test CRC 69B57C25 Copy CRC 69B57C25 Accurately ripped (confidence 7) [4103FE8B] (AR v2) Copy OK
Track 6
Filename C:\Music\06 - John Frizzell - The Helicopter Crash.wav
Peak level 97.6 % Extraction speed 5.7 X Track quality 99.8 % Test CRC 4CD2B908 Copy CRC 4CD2B908 Accurately ripped (confidence 7) [2D8767EF] (AR v2) Copy OK
Track 7
Filename C:\Music\07 - John Frizzell - Escaping The Burning House.wav
Peak level 97.3 % Extraction speed 8.9 X Track quality 100.0 % Test CRC B10C7BE6 Copy CRC B10C7BE6 Accurately ripped (confidence 7) [A1222501] (AR v2) Copy OK
Track 8
Filename C:\Music\08 - John Frizzell - Sinking On Acid Lake.wav
Peak level 97.3 % Extraction speed 7.4 X Track quality 99.9 % Test CRC 4DA7F127 Copy CRC 4DA7F127 Accurately ripped (confidence 7) [4E61F289] (AR v2) Copy OK
Track 9
Filename C:\Music\09 - John Frizzell - Stuck In The Lava.wav
Peak level 97.2 % Extraction speed 7.6 X Track quality 100.0 % Test CRC B57A458C Copy CRC B57A458C Accurately ripped (confidence 7) [69B3690E] (AR v2) Copy OK
Track 10
Filename C:\Music\10 - John Frizzell - The Rescue.wav
Peak level 93.9 % Extraction speed 8.8 X Track quality 100.0 % Test CRC 7434ED50 Copy CRC 7434ED50 Accurately ripped (confidence 7) [3DDEFECC] (AR v2) Copy OK
All tracks accurately ripped
No errors occurred
End of status report
---- CUETools DB Plugin V2.1.6
[CTDB TOCID: DUp6dvMjkViphCCz24ANtvojVmc-] foundSubmit result: DUp6dvMjkViphCCz24ANtvojVmc- has been confirmedTrack | CTDB Status 1 | (3/4) Accurately ripped 2 | (3/4) Accurately ripped 3 | (3/4) Accurately ripped 4 | (3/4) Accurately ripped 5 | (3/4) Accurately ripped 6 | (3/4) Accurately ripped 7 | (3/4) Accurately ripped 8 | (3/4) Accurately ripped 9 | (3/4) Accurately ripped 10 | (3/4) Accurately ripped
==== Log checksum FBD323B04E78E8A7FFC7F8FF14AB9A81342BBAEEC43E3AA4A3A9C52F508EFB0A ====

Содержание индексной карты (.CUE)

REM GENRE SoundtrackREM DATE 1996REM DISCID 8007210AREM COMMENT "ExactAudioCopy v1.1"PERFORMER "John Frizzell & James Newton Howard"TITLE "Dante's Peak"FILE "01 - James Newton Howard - Main Titles.wav" WAVE TRACK 01 AUDIO TITLE "Main Titles" PERFORMER "James Newton Howard" INDEX 01 00:00:00FILE "02 - John Frizzell - The Close Call.wav" WAVE TRACK 02 AUDIO TITLE "The Close Call" PERFORMER "John Frizzell" INDEX 01 00:00:00FILE "03 - John Frizzell - Trapped In The Crater.wav" WAVE TRACK 03 AUDIO TITLE "Trapped In The Crater" PERFORMER "John Frizzell" INDEX 01 00:00:00FILE "04 - John Frizzell - On The Porch.wav" WAVE TRACK 04 AUDIO TITLE "On The Porch" PERFORMER "John Frizzell" INDEX 01 00:00:00FILE "05 - John Frizzell - The Evacuation Begins.wav" WAVE TRACK 05 AUDIO TITLE "The Evacuation Begins" PERFORMER "John Frizzell" INDEX 01 00:00:00FILE "06 - John Frizzell - The Helicopter Crash.wav" WAVE TRACK 06 AUDIO TITLE "The Helicopter Crash" PERFORMER "John Frizzell" INDEX 01 00:00:00FILE "07 - John Frizzell - Escaping The Burning House.wav" WAVE TRACK 07 AUDIO TITLE "Escaping The Burning House" PERFORMER "John Frizzell" INDEX 01 00:00:00FILE "08 - John Frizzell - Sinking On Acid Lake.wav" WAVE TRACK 08 AUDIO TITLE "Sinking On Acid Lake" PERFORMER "John Frizzell" INDEX 01 00:00:00FILE "09 - John Frizzell - Stuck In The Lava.wav" WAVE TRACK 09 AUDIO TITLE "Stuck In The Lava" PERFORMER "John Frizzell" INDEX 01 00:00:00FILE "10 - John Frizzell - The Rescue.wav" WAVE TRACK 10 AUDIO TITLE "The Rescue" PERFORMER "John Frizzell" INDEX 01 00:00:00
[teatrix.ru].t12350.torrent 
Торрент: Зарегистрирован [ 2015-12-22 23:35 ] · A81E4AC8279815A767DE10C8D4A6532674761B28

Скачать .torrent

Скачать

5 KB

Статус: проверено
Скачан: 0 раз
Размер: 176 MB
terms.php



Быстрый ответ

Имя:

      
Для отправки сообщений необходимо включить JavaScript
Показать сообщения:    

Текущее время: 03-Дек 01:22

Часовой пояс: UTC + 3


Вы можете начинать темы
Вы можете отвечать на сообщения
Вы не можете редактировать свои сообщения
Вы не можете удалять свои сообщения
Вы не можете голосовать в опросах
Вы не можете прикреплять файлы к сообщениям
Вы можете скачивать файлы