(Classical) Henry Purcell - The Tempest; If ever I more riches did desire; Trumpet Sonata; Chacony - Aradia Baroque Ensemble, Kevin Mallon - 2000, FLAC (image+.cue) lossless


 

[Цитировать]

Henry Purcell - The Tempest; If ever I more riches did desire; Trumpet Sonata; Chacony - Aradia Baroque Ensemble, Kevin Mallon
Жанр: Classical
Год издания диска: 2000
Издатель (лейбл): Naxos
Номер по каталогу: 8.554262
Дата записи: 1997
Аудиокодек: FLAC
Тип рипа: image+.cue
Битрейт аудио: lossless
Продолжительность: 76:26
Источник: собственный рип
Наличие сканов в содержимом раздачи: да
Треклист:
Henry Purcell (1659-1695)
[1] Overture (Z.770)
[2]-[16] The Tempest or The Enchanted Island (Z.631)
[17] Chacony (Z.730)
[18] If ever I more riches did desire (Z.544)
[19] Trumpet Overture to 'The Indian Queen' (Z.630)
[20]-[22] Trumpet Sonata (Z.850)
Исполнители:
Nils Brown tenor
Michael Colvin tenor
Norman Engel trumpet
Paul Grindlay bass-baritone
Meredith Hall soprano
Rosemarie van der Hooft mezzo-soprano
Gillian Keith soprano
Brett Polegato baritone
Aradia Baroque Ensemble
Kevin Mallon

Лог создания рипа

Exact Audio Copy V1.1 from 23. June 2015
EAC extraction logfile from 20. December 2015, 21:40
Aradia Baroque Ensemble / Purcell - The Tempest
Used drive : HL-DT-STDVDRAM GU70N Adapter: 1 ID: 0
Read mode : SecureUtilize accurate stream : YesDefeat audio cache : YesMake use of C2 pointers : No
Read offset correction : 48Overread into Lead-In and Lead-Out : NoFill up missing offset samples with silence : YesDelete leading and trailing silent blocks : NoNull samples used in CRC calculations : YesUsed interface : Native Win32 interface for Win NT & 2000
Used output format : User Defined EncoderSelected bitrate : 128 kBit/sQuality : HighAdd ID3 tag : NoCommand line compressor : C:\Program Files (x86)\Exact Audio Copy\Flac\flac.exeAdditional command line options : -V -8 -T "Date=%year%" -T "Genre=%genre%" %source%
TOC of the extracted CD
Track | Start | Length | Start sector | End sector --------------------------------------------------------- 1 | 0:00.00 | 3:26.70 | 0 | 15519 2 | 3:26.70 | 2:12.35 | 15520 | 25454 3 | 5:39.30 | 1:45.27 | 25455 | 33356 4 | 7:24.57 | 3:08.28 | 33357 | 47484 5 | 10:33.10 | 1:16.25 | 47485 | 53209 6 | 11:49.35 | 3:57.10 | 53210 | 70994 7 | 15:46.45 | 5:34.15 | 70995 | 96059 8 | 21:20.60 | 0:58.02 | 96060 | 100411 9 | 22:18.62 | 0:37.55 | 100412 | 103241 10 | 22:56.42 | 1:57.40 | 103242 | 112056 11 | 24:54.07 | 4:05.10 | 112057 | 130441 12 | 28:59.17 | 3:09.33 | 130442 | 144649 13 | 32:08.50 | 4:23.70 | 144650 | 164444 14 | 36:32.45 | 7:26.35 | 164445 | 197929 15 | 43:59.05 | 5:01.22 | 197930 | 220526 16 | 49:00.27 | 3:15.60 | 220527 | 235211 17 | 52:16.12 | 4:32.18 | 235212 | 255629 18 | 56:48.30 | 11:42.37 | 255630 | 308316 19 | 68:30.67 | 3:23.00 | 308317 | 323541 20 | 71:53.67 | 1:24.60 | 323542 | 329901 21 | 73:18.52 | 1:16.28 | 329902 | 335629 22 | 74:35.05 | 1:48.70 | 335630 | 343799
Range status and errors
Selected range
Filename C:\temp\Naxos_8.554262 - Purcell - The Tempest\Purcell - The Tempest.wav
Peak level 98.4 % Extraction speed 2.3 X Range quality 100.0 % Test CRC 9427540A Copy CRC 9427540A Copy OK
No errors occurred
AccurateRip summary
Track 1 accurately ripped (confidence 4) [71991940] (AR v2)Track 2 accurately ripped (confidence 4) [315A4280] (AR v2)Track 3 accurately ripped (confidence 4) [77B5E6D1] (AR v2)Track 4 accurately ripped (confidence 4) [73237CDD] (AR v2)Track 5 accurately ripped (confidence 4) [DFF8882F] (AR v2)Track 6 accurately ripped (confidence 4) [26E4C574] (AR v2)Track 7 accurately ripped (confidence 4) [A806E741] (AR v2)Track 8 accurately ripped (confidence 4) [75F39193] (AR v2)Track 9 accurately ripped (confidence 4) [0770901A] (AR v2)Track 10 accurately ripped (confidence 4) [F3BA17AC] (AR v2)Track 11 accurately ripped (confidence 4) [64F94057] (AR v2)Track 12 accurately ripped (confidence 4) [E777872F] (AR v2)Track 13 accurately ripped (confidence 4) [8067A7E5] (AR v2)Track 14 accurately ripped (confidence 4) [7122A1D3] (AR v2)Track 15 accurately ripped (confidence 4) [CD527528] (AR v2)Track 16 accurately ripped (confidence 4) [C0478905] (AR v2)Track 17 accurately ripped (confidence 4) [04C4A703] (AR v2)Track 18 accurately ripped (confidence 4) [E939CC70] (AR v2)Track 19 accurately ripped (confidence 4) [DC40F13D] (AR v2)Track 20 accurately ripped (confidence 4) [DFF47E77] (AR v2)Track 21 accurately ripped (confidence 4) [D0CF5DF4] (AR v2)Track 22 accurately ripped (confidence 4) [CD5FBBAA] (AR v2)
All tracks accurately ripped
End of status report
==== Log checksum 84109FC98DB6C60594A7D5BAFCBC28E124058436F27451F723069424D9E0FCC6 ====



Показать сообщения:    

Текущее время: 05-Дек 11:32

Часовой пояс: UTC + 3


Вы не можете начинать темы
Вы не можете отвечать на сообщения
Вы не можете редактировать свои сообщения
Вы не можете удалять свои сообщения
Вы не можете голосовать в опросах
Вы не можете прикреплять файлы к сообщениям
Вы не можете скачивать файлы