Новейший завет / Le tout nouveau testament (Жако ван Дормель / Jaco van Dormael) [2015, Бельгия, Франция, Люксембург, Комедия, WEB-DLRip] Dub (iTunes)


Статистика раздачи [Обновить пиров]
Размер:  1.47 GB   |    Зарегистрирован:  11 месяцев 18 дней   |    Скачан:  0 раз

Полного источника не было: Никогда

Личеров:  3  [  0 KB/s  ]   Подробная статистика пиров
 
   
 
 
 

[Цитировать]

Новейший завет / Le tout nouveau testament
Страна: Бельгия, Франция, Люксембург
Жанр: Комедия
Год выпуска: 2015
Продолжительность: 01:54:30
Перевод: Профессиональный (дублированный) iTunes
Cубтитры: нет
Режиссер: Жако ван Дормель / Jaco van Dormael
В ролях: Бенуа Пульворд, Катрин Денёв, Франсуа Дамиенс, Иоланда Моро, Пили Груан, Лаура Верлинден, Серж Ларивье, Дидье Де Нек, Марко Лоренцини, Ромен Желен
Описание: Да, Бог существует. Но он совсем не такой, каким мы его представляли. Он живет в Брюсселе, и у него есть не только сын, но и дочь. Она сбегает из дома и отправляется в наш мир искать приключения и испытывать терпение своего отца на прочность. Надолго ли его хватит?..
Сэмпл: http://multi-up.com/1080367
Качество видео: WEB-DLRip
Формат видео: AVI
Видео: 720x304 (2.37:1), 24 fps, XviD build 73 ~1438 kbps avg, 0.27 bit/pixel
Аудио: 48 kHz, AC3 Dolby Digital, 3/2 (L,C,R,l,r) + LFE ch, ~384 kbps

MediaInfo

Формат : AVI
Формат/Информация : Audio Video Interleave
Размер файла : 1,47 Гбайт
Продолжительность : 1 ч. 54 м.
Общий поток : 1832 Кбит/сек
Программа кодирования : VirtualDubMod 1.5.10.3 | www.virtualdub-fr.org || (build 2550/release)
Библиотека кодирования : VirtualDubMod build 2550/release
Видео
Идентификатор : 0
Формат : MPEG-4 Visual
Профиль формата : Advanced Simple@L5
Параметр BVOP формата : 1
Параметр QPel формата : Нет
Параметр GMC формата : Без точки перехода
Параметр матрицы формата : Выборочная
Идентификатор кодека : XVID
Идентификатор кодека/Подсказка : XviD
Продолжительность : 1 ч. 54 м.
Битрейт : 1439 Кбит/сек
Ширина : 720 пикселей
Высота : 304 пикселя
Соотношение сторон : 2,35:1
Частота кадров : 24,000 кадра/сек
Цветовое пространство : YUV
Субдискретизация насыщенности : 4:2:0
Битовая глубина : 8 бит
Тип развёртки : Прогрессивная
Метод сжатия : С потерями
Бит/(Пиксели*Кадры) : 0.274
Размер потока : 1,15 Гбайт (79%)
Библиотека кодирования : XviD 73
Аудио
Идентификатор : 1
Формат : AC-3
Формат/Информация : Audio Coding 3
Расширение режима : CM (complete main)
Параметр Endianness формата : Big
Идентификатор кодека : 2000
Продолжительность : 1 ч. 54 м.
Вид битрейта : Постоянный
Битрейт : 384 Кбит/сек
Каналы : 6 каналов
Расположение каналов : Front: L C R, Side: L R, LFE
Частота : 48,0 КГц
Частота кадров : 31,250 кадров/сек (1536 spf)
Метод сжатия : С потерями
Размер потока : 315 Мбайт (21%)
Выравнивание : Разделение по промежуткам
Продолжительность промежутка : 42 мс. (1,00 видеокадр)
Время предзагрузки промежутка : 500 мс.

Скриншоты

Сравнениеhttp://screenshotcomparison.com/comparison/155176/picture:0 http://teatrix.ru/viewtopic.php?t=12357
[teatrix.ru].t12356.torrent 
Торрент: Зарегистрирован [ 2015-12-23 17:45 ] · D48F8B5195A52F3F00078C3347B243CB88D7AABE

Скачать .torrent

Скачать

15 KB

Статус: проверено
Скачан: 0 раз
Размер: 1.47 GB
terms.php



Быстрый ответ

Имя:

      
Для отправки сообщений необходимо включить JavaScript
Показать сообщения:    

Текущее время: 11-Дек 11:05

Часовой пояс: UTC + 3


Вы можете начинать темы
Вы можете отвечать на сообщения
Вы не можете редактировать свои сообщения
Вы не можете удалять свои сообщения
Вы не можете голосовать в опросах
Вы не можете прикреплять файлы к сообщениям
Вы можете скачивать файлы