(Baroque opera / oratorio ) M. A. Charpentier - David + Jonathan [David and Jonathan, David et Jonathas] {Pinchgut Opera} (Cantillation, Orchestra of the Antipodes, Antony Walker) - 2009, FLAC (tracks+.cue) lossless


Статистика раздачи [Обновить пиров]
Размер:  616 MB   |    Зарегистрирован:  11 месяцев 15 дней   |    Скачан:  1 раз

Полного источника не было: 4 часа

Личеров:  2  [  0 KB/s  ]   Подробная статистика пиров
 
   
 
 
 

[Цитировать]

Charpentier - David + Jonathan

Жанр: Baroque opera / oratorio
Страна-производитель диска: Made in Australia
Год издания диска: 2009
Издатель (лейбл): ABC Classics
Номер по каталогу: ABC 476 36 61
Дата записи: 2008
Аудиокодек: FLAC
Тип рипа: tracks+.cue
Битрейт аудио: lossless
Продолжительность: Total Playing Time 120’16
Источник: релизер
сайт-источник/ник/другое: macropus, demonoid
Наличие сканов в содержимом раздачи: да
Треклист:

скрытый текст

CD1
01 - 1 PROLOGUE. Ouverture
02 - 2 Ou suis-je? qu’ai-je fait?
03 - 3 Dois-je enfin eprouver le secours de vos charmes?
04 - 4 Retirez-vous affreux tonnerre
05 - 5 Quelle importune voix vient troubler mon repos?
06 - 6 C’est assez! ai-je enfin epuise ta colere?
07 - ACTE I. 7 Marche triomphante
08 - 8 Du plus grand des heros publions les exploits
09 - 9 Allez, le ciel jaloux
10 - 10 Ciel! quel triste combat en ces lieux me rappelle?
11 - 11 Toi dans qui j’esperois toujours
12 - 12 Le ciel enfin favorable a mes vœux
13 - ACTE II. Prelude
14 - Quel inutile soin en ces lieux vous arreste?
15 - 15 Depit jaloux, haine cruelle
16 - 16 A vostre bras vainqueur
CD2
01 - ACTE III. 1 Symphonie d'ouverture
02 - 2 Ah! je dois assurer et ma vie et l'empire
03 - 3 Objet d'une implacable haine
04 - 4 David peut-il attendre un retour favorable?
05 - ACTE IV. 5 Prelude
06 - 6 Souverain juge des mortels
07 - 7 Vous me fuiez!
08 - 8 A-t-on jamais souffert une plus rude peine?
09 - 9 Venez, Seigneur, venez. Saul va vous attendre
10 - 10 Enfin vous m'ecoutez, Seigneur?
11 - 11 Rigaudon
12 - 12 Bouree
13 - 13 ACTE V. Bruit d'armes
14 - 14 Courez, courez, Saul attend un secours necessaire
15 - 5 Que vois-je? quoi, je perds et mon fils et l'empire!
16 - 16 Victoire! Victoire!
17 - 17 Qu'on sauve Jonathas
18 - 18 Voi traitre, et reconnoi ta nouvelle victime
19 - 19 Joignez a vos exploits l'honneur du diademe
20 - 20 Du plus grand des heros
Исполнители:

скрытый текст

David et Jonathas (David and Jonathan), H. 490
Opera in five acts and a prologue
First performed at the Collège Louis-le-Grand, Paris on 25 February 1688.
Libretto by François de Paule Bretonneau 1660-1741
Anders J. Dahlin - David
Sara Macliver - Jonathas
Dean Robinson - Saül
Richard Anderson - Achis
Simon Lobelson - Joabel
Paul McMahon - La Pythonisse (The Witch)
David Parkin - L’ombre de Samüel (The Ghost of Samuel)
Andrei Laptev - Un du peuple (A Philistine), Un de la suite de David
(One of David’s Company)
Anna Fraser - Un berger (A Shepherd)
David Greco - Un guerrier (A Warrior)
Ashley Giles - Un de la suite de Jonathas
(One of Jonathan’s Company)
Pinchgut Opera
Cantillation
Orchestra of the Antipodes on period instruments
Antony Walker - conductor
Erin Helyard - assistant conducto
Recorded live on 3, 6, 7 and 8 December 2008 in City
Recital Hall Angel Place, Sydney

Лог создания рипа

CD1

скрытый текст

X Lossless Decoder version 20100302 (116.6)
XLD extraction logfile from 2010-03-18 15:34:05 +1100
Pinchgut Opera, Orchestra of the Antipodes, Walker / Charpentier - David Jonathan, Pinchgut Opera CD1
Used drive : PIONEER DVD-RW DVRTS08 (revision Q81B)
Use cdparanoia mode : YES (CDParanoia III 10.2 engine)
Disable audio cache : OK for the drive with cache less than 2750KB
Make use of C2 pointers : NO
Read offset correction : 48
Max retry count : 100
TOC of the extracted CD
Track | Start | Length | Start sector | End sector
---------------------------------------------------------
1 | 00:00:00 | 02:36:17 | 0 | 11716
2 | 02:36:17 | 02:57:71 | 11717 | 25062
3 | 05:34:13 | 00:38:43 | 25063 | 27955
4 | 06:12:56 | 06:33:51 | 27956 | 57481
5 | 12:46:32 | 03:12:28 | 57482 | 71909
6 | 15:58:60 | 01:09:74 | 71910 | 77158
7 | 17:08:59 | 00:46:62 | 77159 | 80670
8 | 17:55:46 | 09:09:03 | 80671 | 121848
9 | 27:04:49 | 00:46:52 | 121849 | 125350
10 | 27:51:26 | 04:31:47 | 125351 | 145722
11 | 32:22:73 | 02:14:65 | 145723 | 155837
12 | 34:37:63 | 06:32:25 | 155838 | 185262
13 | 41:10:13 | 01:15:64 | 185263 | 190951
14 | 42:26:02 | 02:07:65 | 190952 | 200541
15 | 44:33:67 | 04:38:21 | 200542 | 221412
16 | 49:12:13 | 08:37:08 | 221413 | 260195
All Tracks
Album gain : -1.57 dB
Peak : 0.811127
Track 01
Filename : /Volumes/Rips/Charpentier - David Jonathan (2009) [FLAC] {Pinchgut Opera}/CD1/01 - 1 PROLOGUE. Ouverture.flac
Pre-gap length : 00:02:00
Track gain : 0.93 dB
Peak : 0.563629
CRC32 hash (test run) : 2ACFA427
CRC32 hash : 2ACFA427
CRC32 hash (skip zero) : DDDD0A5C
AccurateRip signature : 251A23C0
->Track not present in AccurateRip database.
Statistics
Read error : 0
Skipped (treated as error) : 0
Edge jitter error (maybe fixed) : 0
Atom jitter error (maybe fixed) : 0
Drift error (maybe fixed) : 0
Dropped bytes error (maybe fixed) : 0
Duplicated bytes error (maybe fixed) : 0
Inconsistency in error sectors : 0
Track 02
Filename : /Volumes/Rips/Charpentier - David Jonathan (2009) [FLAC] {Pinchgut Opera}/CD1/02 - 2 Ou suis-je.flac
Track gain : -1.41 dB
Peak : 0.766083
CRC32 hash (test run) : 6EB92267
CRC32 hash : 6EB92267
CRC32 hash (skip zero) : AA7B78E4
AccurateRip signature : 5C039960
->Track not present in AccurateRip database.
Statistics
Read error : 0
Skipped (treated as error) : 0
Edge jitter error (maybe fixed) : 0
Atom jitter error (maybe fixed) : 0
Drift error (maybe fixed) : 0
Dropped bytes error (maybe fixed) : 0
Duplicated bytes error (maybe fixed) : 0
Inconsistency in error sectors : 0
Track 03
Filename : /Volumes/Rips/Charpentier - David Jonathan (2009) [FLAC] {Pinchgut Opera}/CD1/03 - 3 Dois-je enfin eprouver le secours de vos charmes.flac
Track gain : 0.44 dB
Peak : 0.616302
CRC32 hash (test run) : C637F07E
CRC32 hash : C637F07E
CRC32 hash (skip zero) : DF07CDA1
AccurateRip signature : F1483C92
->Track not present in AccurateRip database.
Statistics
Read error : 0
Skipped (treated as error) : 0
Edge jitter error (maybe fixed) : 0
Atom jitter error (maybe fixed) : 0
Drift error (maybe fixed) : 0
Dropped bytes error (maybe fixed) : 0
Duplicated bytes error (maybe fixed) : 0
Inconsistency in error sectors : 0
Track 04
Filename : /Volumes/Rips/Charpentier - David Jonathan (2009) [FLAC] {Pinchgut Opera}/CD1/04 - 4 Retirez-vous affreux tonnerre.flac
Track gain : -0.71 dB
Peak : 0.806488
CRC32 hash (test run) : 4EFEE67D
CRC32 hash : 4EFEE67D
CRC32 hash (skip zero) : D4981C93
AccurateRip signature : 477E4840
->Track not present in AccurateRip database.
Statistics
Read error : 0
Skipped (treated as error) : 0
Edge jitter error (maybe fixed) : 0
Atom jitter error (maybe fixed) : 0
Drift error (maybe fixed) : 0
Dropped bytes error (maybe fixed) : 0
Duplicated bytes error (maybe fixed) : 0
Inconsistency in error sectors : 0
Track 05
Filename : /Volumes/Rips/Charpentier - David Jonathan (2009) [FLAC] {Pinchgut Opera}/CD1/05 - 5 Quelle importune voix vient troubler mon repos.flac
Track gain : 0.24 dB
Peak : 0.613007
CRC32 hash (test run) : 5471F263
CRC32 hash : 5471F263
CRC32 hash (skip zero) : 2705AAEB
AccurateRip signature : 8DBEAA82
->Track not present in AccurateRip database.
Statistics
Read error : 0
Skipped (treated as error) : 0
Edge jitter error (maybe fixed) : 0
Atom jitter error (maybe fixed) : 0
Drift error (maybe fixed) : 0
Dropped bytes error (maybe fixed) : 0
Duplicated bytes error (maybe fixed) : 0
Inconsistency in error sectors : 0
Track 06
Filename : /Volumes/Rips/Charpentier - David Jonathan (2009) [FLAC] {Pinchgut Opera}/CD1/06 - 6 C'est assez! ai-je enfin epuise ta colere.flac
Track gain : -0.97 dB
Peak : 0.701599
CRC32 hash (test run) : A6A147EB
CRC32 hash : A6A147EB
CRC32 hash (skip zero) : D830EBDC
AccurateRip signature : BAF51521
->Track not present in AccurateRip database.
Statistics
Read error : 0
Skipped (treated as error) : 0
Edge jitter error (maybe fixed) : 0
Atom jitter error (maybe fixed) : 0
Drift error (maybe fixed) : 0
Dropped bytes error (maybe fixed) : 0
Duplicated bytes error (maybe fixed) : 0
Inconsistency in error sectors : 0
Track 07
Filename : /Volumes/Rips/Charpentier - David Jonathan (2009) [FLAC] {Pinchgut Opera}/CD1/07 - 7 ACTE I. Marche triomphante.flac
Track gain : -1.95 dB
Peak : 0.772980
CRC32 hash (test run) : 1597478A
CRC32 hash : 1597478A
CRC32 hash (skip zero) : 9D2910A4
AccurateRip signature : 8282C503
->Track not present in AccurateRip database.
Statistics
Read error : 0
Skipped (treated as error) : 0
Edge jitter error (maybe fixed) : 0
Atom jitter error (maybe fixed) : 0
Drift error (maybe fixed) : 0
Dropped bytes error (maybe fixed) : 0
Duplicated bytes error (maybe fixed) : 0
Inconsistency in error sectors : 0
Track 08
Filename : /Volumes/Rips/Charpentier - David Jonathan (2009) [FLAC] {Pinchgut Opera}/CD1/08 - 8 Du plus grand des heros publions les exploits.flac
Track gain : -2.71 dB
Peak : 0.808807
CRC32 hash (test run) : 7BDA4BA8
CRC32 hash : 7BDA4BA8
CRC32 hash (skip zero) : 0A9665B3
AccurateRip signature : 48FD0B86
->Track not present in AccurateRip database.
Statistics
Read error : 0
Skipped (treated as error) : 0
Edge jitter error (maybe fixed) : 0
Atom jitter error (maybe fixed) : 0
Drift error (maybe fixed) : 0
Dropped bytes error (maybe fixed) : 0
Duplicated bytes error (maybe fixed) : 0
Inconsistency in error sectors : 0
Track 09
Filename : /Volumes/Rips/Charpentier - David Jonathan (2009) [FLAC] {Pinchgut Opera}/CD1/09 - 9 Allez, le ciel jaloux.flac
Track gain : 0.68 dB
Peak : 0.557190
CRC32 hash (test run) : 768DA92C
CRC32 hash : 768DA92C
CRC32 hash (skip zero) : 5BB56286
AccurateRip signature : 1F5A0968
->Track not present in AccurateRip database.
Statistics
Read error : 0
Skipped (treated as error) : 0
Edge jitter error (maybe fixed) : 0
Atom jitter error (maybe fixed) : 0
Drift error (maybe fixed) : 0
Dropped bytes error (maybe fixed) : 0
Duplicated bytes error (maybe fixed) : 0
Inconsistency in error sectors : 0
Track 10
Filename : /Volumes/Rips/Charpentier - David Jonathan (2009) [FLAC] {Pinchgut Opera}/CD1/10 - 10 Ciel! quel triste combat en ces lieux me rappelle.flac
Track gain : -0.05 dB
Peak : 0.665192
CRC32 hash (test run) : 09B2D0EB
CRC32 hash : 09B2D0EB
CRC32 hash (skip zero) : B25C6EF0
AccurateRip signature : 76CA3140
->Track not present in AccurateRip database.
Statistics
Read error : 0
Skipped (treated as error) : 0
Edge jitter error (maybe fixed) : 0
Atom jitter error (maybe fixed) : 0
Drift error (maybe fixed) : 0
Dropped bytes error (maybe fixed) : 0
Duplicated bytes error (maybe fixed) : 0
Inconsistency in error sectors : 0
Track 11
Filename : /Volumes/Rips/Charpentier - David Jonathan (2009) [FLAC] {Pinchgut Opera}/CD1/11 - 11 Toi dans qui j'esperois toujours.flac
Track gain : -1.42 dB
Peak : 0.745422
CRC32 hash (test run) : E799F1F1
CRC32 hash : E799F1F1
CRC32 hash (skip zero) : C2A46A5B
AccurateRip signature : B6A1D659
->Track not present in AccurateRip database.
Statistics
Read error : 0
Skipped (treated as error) : 0
Edge jitter error (maybe fixed) : 0
Atom jitter error (maybe fixed) : 0
Drift error (maybe fixed) : 0
Dropped bytes error (maybe fixed) : 0
Duplicated bytes error (maybe fixed) : 0
Inconsistency in error sectors : 0
Track 12
Filename : /Volumes/Rips/Charpentier - David Jonathan (2009) [FLAC] {Pinchgut Opera}/CD1/12 - 12 Le ciel enfin favorable a mes voeux.flac
Track gain : -2.16 dB
Peak : 0.802246
CRC32 hash (test run) : 9EEC065D
CRC32 hash : 9EEC065D
CRC32 hash (skip zero) : D3880D77
AccurateRip signature : DC16CD4E
->Track not present in AccurateRip database.
Statistics
Read error : 0
Skipped (treated as error) : 0
Edge jitter error (maybe fixed) : 0
Atom jitter error (maybe fixed) : 0
Drift error (maybe fixed) : 0
Dropped bytes error (maybe fixed) : 0
Duplicated bytes error (maybe fixed) : 0
Inconsistency in error sectors : 0
Track 13
Filename : /Volumes/Rips/Charpentier - David Jonathan (2009) [FLAC] {Pinchgut Opera}/CD1/13 - 13 ACTE II. Prelude.flac
Track gain : 1.60 dB
Peak : 0.489807
CRC32 hash (test run) : A8FE6F16
CRC32 hash : A8FE6F16
CRC32 hash (skip zero) : C1E1CF8C
AccurateRip signature : 28F7AD7C
->Track not present in AccurateRip database.
Statistics
Read error : 0
Skipped (treated as error) : 0
Edge jitter error (maybe fixed) : 0
Atom jitter error (maybe fixed) : 0
Drift error (maybe fixed) : 0
Dropped bytes error (maybe fixed) : 0
Duplicated bytes error (maybe fixed) : 0
Inconsistency in error sectors : 0
Track 14
Filename : /Volumes/Rips/Charpentier - David Jonathan (2009) [FLAC] {Pinchgut Opera}/CD1/14 - 14 Quel inutile soin en ces lieux vous arreste.flac
Track gain : 2.35 dB
Peak : 0.493866
CRC32 hash (test run) : 2DD23623
CRC32 hash : 2DD23623
CRC32 hash (skip zero) : A85CACBB
AccurateRip signature : B87916A5
->Track not present in AccurateRip database.
Statistics
Read error : 0
Skipped (treated as error) : 0
Edge jitter error (maybe fixed) : 0
Atom jitter error (maybe fixed) : 0
Drift error (maybe fixed) : 0
Dropped bytes error (maybe fixed) : 0
Duplicated bytes error (maybe fixed) : 0
Inconsistency in error sectors : 0
Track 15
Filename : /Volumes/Rips/Charpentier - David Jonathan (2009) [FLAC] {Pinchgut Opera}/CD1/15 - 15 Depit jaloux, haine cruelle.flac
Track gain : -0.30 dB
Peak : 0.806946
CRC32 hash (test run) : 4EB06FCF
CRC32 hash : 4EB06FCF
CRC32 hash (skip zero) : DAD5B273
AccurateRip signature : 0E1E0230
->Track not present in AccurateRip database.
Statistics
Read error : 0
Skipped (treated as error) : 0
Edge jitter error (maybe fixed) : 0
Atom jitter error (maybe fixed) : 0
Drift error (maybe fixed) : 0
Dropped bytes error (maybe fixed) : 0
Duplicated bytes error (maybe fixed) : 0
Inconsistency in error sectors : 0
Track 16
Filename : /Volumes/Rips/Charpentier - David Jonathan (2009) [FLAC] {Pinchgut Opera}/CD1/16 - 16 A vostre bras vainqueur.flac
Track gain : -1.98 dB
Peak : 0.811127
CRC32 hash (test run) : 061B8EF1
CRC32 hash : 061B8EF1
CRC32 hash (skip zero) : 7695C990
AccurateRip signature : 682F5361
->Track not present in AccurateRip database.
Statistics
Read error : 0
Skipped (treated as error) : 0
Edge jitter error (maybe fixed) : 0
Atom jitter error (maybe fixed) : 0
Drift error (maybe fixed) : 0
Dropped bytes error (maybe fixed) : 0
Duplicated bytes error (maybe fixed) : 0
Inconsistency in error sectors : 0
No errors occurred
End of status report
CD2

скрытый текст

X Lossless Decoder version 20100302 (116.6)
XLD extraction logfile from 2010-03-18 16:06:26 +1100
Pinchgut Opera, Orchestra of the Antipodes, Walker / Charpentier - David, Jonathan - Pinchgut Opera CD2
Used drive : PIONEER DVD-RW DVRTS08 (revision Q81B)
Use cdparanoia mode : YES (CDParanoia III 10.2 engine)
Disable audio cache : OK for the drive with cache less than 2750KB
Make use of C2 pointers : NO
Read offset correction : 48
Max retry count : 100
TOC of the extracted CD
Track | Start | Length | Start sector | End sector
---------------------------------------------------------
1 | 00:00:00 | 01:06:48 | 0 | 4997
2 | 01:06:48 | 04:04:42 | 4998 | 23339
3 | 05:11:15 | 04:48:63 | 23340 | 45002
4 | 10:00:03 | 07:05:11 | 45003 | 76888
5 | 17:05:14 | 02:57:15 | 76889 | 90178
6 | 20:02:29 | 01:46:48 | 90179 | 98176
7 | 21:49:02 | 03:42:23 | 98177 | 114849
8 | 25:31:25 | 07:11:49 | 114850 | 147223
9 | 32:42:74 | 00:53:05 | 147224 | 151203
10 | 33:36:04 | 02:39:34 | 151204 | 163162
11 | 36:15:38 | 00:46:68 | 163163 | 166680
12 | 37:02:31 | 00:43:60 | 166681 | 169965
13 | 37:46:16 | 00:47:34 | 169966 | 173524
14 | 38:33:50 | 00:54:30 | 173525 | 177604
15 | 39:28:05 | 07:32:57 | 177605 | 211561
16 | 47:00:62 | 00:18:22 | 211562 | 212933
17 | 47:19:09 | 07:50:44 | 212934 | 248227
18 | 55:09:53 | 01:36:16 | 248228 | 255443
19 | 56:45:69 | 01:15:57 | 255444 | 261125
20 | 58:01:51 | 04:22:42 | 261126 | 280817
All Tracks
Album gain : -1.15 dB
Peak : 0.895447
Track 01
Filename : /Volumes/Rips/Charpentier - David Jonathan (2009) [FLAC] {Pinchgut Opera}/CD2/01 - 1 ACTE III. Symphonie d'ouverture.flac
Pre-gap length : 00:02:00
Track gain : 1.95 dB
Peak : 0.456146
CRC32 hash (test run) : 8B9EF0E2
CRC32 hash : 8B9EF0E2
CRC32 hash (skip zero) : 258379C3
AccurateRip signature : 73CC7FA3
->Track not present in AccurateRip database.
Statistics
Read error : 0
Skipped (treated as error) : 0
Edge jitter error (maybe fixed) : 0
Atom jitter error (maybe fixed) : 0
Drift error (maybe fixed) : 0
Dropped bytes error (maybe fixed) : 0
Duplicated bytes error (maybe fixed) : 0
Inconsistency in error sectors : 0
Track 02
Filename : /Volumes/Rips/Charpentier - David Jonathan (2009) [FLAC] {Pinchgut Opera}/CD2/02 - 2 Ah! je dois assurer et ma vie et l'empire.flac
Track gain : 0.55 dB
Peak : 0.652985
CRC32 hash (test run) : 066CCFA5
CRC32 hash : 066CCFA5
CRC32 hash (skip zero) : 8F33FB2D
AccurateRip signature : 3C9F6B82
->Track not present in AccurateRip database.
Statistics
Read error : 0
Skipped (treated as error) : 0
Edge jitter error (maybe fixed) : 0
Atom jitter error (maybe fixed) : 0
Drift error (maybe fixed) : 0
Dropped bytes error (maybe fixed) : 0
Duplicated bytes error (maybe fixed) : 0
Inconsistency in error sectors : 0
Track 03
Filename : /Volumes/Rips/Charpentier - David Jonathan (2009) [FLAC] {Pinchgut Opera}/CD2/03 - 3 Objet d'une implacable haine.flac
Track gain : 0.19 dB
Peak : 0.725586
CRC32 hash (test run) : 6E140CE2
CRC32 hash : 6E140CE2
CRC32 hash (skip zero) : 226C573E
AccurateRip signature : 5A8AC46F
->Track not present in AccurateRip database.
Statistics
Read error : 0
Skipped (treated as error) : 0
Edge jitter error (maybe fixed) : 0
Atom jitter error (maybe fixed) : 0
Drift error (maybe fixed) : 0
Dropped bytes error (maybe fixed) : 0
Duplicated bytes error (maybe fixed) : 0
Inconsistency in error sectors : 0
Track 04
Filename : /Volumes/Rips/Charpentier - David Jonathan (2009) [FLAC] {Pinchgut Opera}/CD2/04 - 4 David peut-il attendre un retour favorable.flac
Track gain : -1.34 dB
Peak : 0.809235
CRC32 hash (test run) : 43AE8D64
CRC32 hash : 43AE8D64
CRC32 hash (skip zero) : B4C9B91F
AccurateRip signature : E6599B55
->Track not present in AccurateRip database.
Statistics
Read error : 0
Skipped (treated as error) : 0
Edge jitter error (maybe fixed) : 0
Atom jitter error (maybe fixed) : 0
Drift error (maybe fixed) : 0
Dropped bytes error (maybe fixed) : 0
Duplicated bytes error (maybe fixed) : 0
Inconsistency in error sectors : 0
Track 05
Filename : /Volumes/Rips/Charpentier - David Jonathan (2009) [FLAC] {Pinchgut Opera}/CD2/05 - 5 ACTE IV. Prelude.flac
Track gain : 2.28 dB
Peak : 0.517059
CRC32 hash (test run) : 59621339
CRC32 hash : 59621339
CRC32 hash (skip zero) : 97A83BA4
AccurateRip signature : D1F633E2
->Track not present in AccurateRip database.
Statistics
Read error : 0
Skipped (treated as error) : 0
Edge jitter error (maybe fixed) : 0
Atom jitter error (maybe fixed) : 0
Drift error (maybe fixed) : 0
Dropped bytes error (maybe fixed) : 0
Duplicated bytes error (maybe fixed) : 0
Inconsistency in error sectors : 0
Track 06
Filename : /Volumes/Rips/Charpentier - David Jonathan (2009) [FLAC] {Pinchgut Opera}/CD2/06 - 6 Souverain juge des mortels.flac
Track gain : -0.47 dB
Peak : 0.597870
CRC32 hash (test run) : CDCA555D
CRC32 hash : CDCA555D
CRC32 hash (skip zero) : 5E8A3888
AccurateRip signature : 29EA16A9
->Track not present in AccurateRip database.
Statistics
Read error : 0
Skipped (treated as error) : 0
Edge jitter error (maybe fixed) : 0
Atom jitter error (maybe fixed) : 0
Drift error (maybe fixed) : 0
Dropped bytes error (maybe fixed) : 0
Duplicated bytes error (maybe fixed) : 0
Inconsistency in error sectors : 0
Track 07
Filename : /Volumes/Rips/Charpentier - David Jonathan (2009) [FLAC] {Pinchgut Opera}/CD2/07 - 7 Vous me fuiez!.flac
Track gain : -2.36 dB
Peak : 0.703430
CRC32 hash (test run) : F292C5CA
CRC32 hash : F292C5CA
CRC32 hash (skip zero) : A441E57D
AccurateRip signature : 2DF7C164
->Track not present in AccurateRip database.
Statistics
Read error : 0
Skipped (treated as error) : 0
Edge jitter error (maybe fixed) : 0
Atom jitter error (maybe fixed) : 0
Drift error (maybe fixed) : 0
Dropped bytes error (maybe fixed) : 0
Duplicated bytes error (maybe fixed) : 0
Inconsistency in error sectors : 0
Track 08
Filename : /Volumes/Rips/Charpentier - David Jonathan (2009) [FLAC] {Pinchgut Opera}/CD2/08 - 8 A-t-on jamais souffert une plus rude peine.flac
Track gain : -2.18 dB
Peak : 0.653381
CRC32 hash (test run) : 0120FB3A
CRC32 hash : 0120FB3A
CRC32 hash (skip zero) : E260FB13
AccurateRip signature : 4DEE1FB1
->Track not present in AccurateRip database.
Statistics
Read error : 0
Skipped (treated as error) : 0
Edge jitter error (maybe fixed) : 0
Atom jitter error (maybe fixed) : 0
Drift error (maybe fixed) : 0
Dropped bytes error (maybe fixed) : 0
Duplicated bytes error (maybe fixed) : 0
Inconsistency in error sectors : 0
Track 09
Filename : /Volumes/Rips/Charpentier - David Jonathan (2009) [FLAC] {Pinchgut Opera}/CD2/09 - 9 Venez, Seigneur, venez. Saul va vous attendre.flac
Track gain : -0.06 dB
Peak : 0.796692
CRC32 hash (test run) : BDE7E82B
CRC32 hash : BDE7E82B
CRC32 hash (skip zero) : 811B49AA
AccurateRip signature : 1EA25A70
->Track not present in AccurateRip database.
Statistics
Read error : 0
Skipped (treated as error) : 0
Edge jitter error (maybe fixed) : 0
Atom jitter error (maybe fixed) : 0
Drift error (maybe fixed) : 0
Dropped bytes error (maybe fixed) : 0
Duplicated bytes error (maybe fixed) : 0
Inconsistency in error sectors : 0
Track 10
Filename : /Volumes/Rips/Charpentier - David Jonathan (2009) [FLAC] {Pinchgut Opera}/CD2/10 - 10 Enfin vous m'ecoutez, Seigneur.flac
Track gain : -2.12 dB
Peak : 0.806458
CRC32 hash (test run) : D96FD109
CRC32 hash : D96FD109
CRC32 hash (skip zero) : 0BAC02CB
AccurateRip signature : 4C09B9A1
->Track not present in AccurateRip database.
Statistics
Read error : 0
Skipped (treated as error) : 0
Edge jitter error (maybe fixed) : 0
Atom jitter error (maybe fixed) : 0
Drift error (maybe fixed) : 0
Dropped bytes error (maybe fixed) : 0
Duplicated bytes error (maybe fixed) : 0
Inconsistency in error sectors : 0
Track 11
Filename : /Volumes/Rips/Charpentier - David Jonathan (2009) [FLAC] {Pinchgut Opera}/CD2/11 - 11 Rigaudon.flac
Track gain : 0.36 dB
Peak : 0.549286
CRC32 hash (test run) : 0B8F6DED
CRC32 hash : 0B8F6DED
CRC32 hash (skip zero) : FF5995C8
AccurateRip signature : 118C7F24
->Track not present in AccurateRip database.
Statistics
Read error : 0
Skipped (treated as error) : 0
Edge jitter error (maybe fixed) : 0
Atom jitter error (maybe fixed) : 0
Drift error (maybe fixed) : 0
Dropped bytes error (maybe fixed) : 0
Duplicated bytes error (maybe fixed) : 0
Inconsistency in error sectors : 0
Track 12
Filename : /Volumes/Rips/Charpentier - David Jonathan (2009) [FLAC] {Pinchgut Opera}/CD2/12 - 12 Bouree.flac
Track gain : -0.87 dB
Peak : 0.696838
CRC32 hash (test run) : 63A8B3D7
CRC32 hash : 63A8B3D7
CRC32 hash (skip zero) : 5E194F85
AccurateRip signature : 0992A468
->Track not present in AccurateRip database.
Statistics
Read error : 0
Skipped (treated as error) : 0
Edge jitter error (maybe fixed) : 0
Atom jitter error (maybe fixed) : 0
Drift error (maybe fixed) : 0
Dropped bytes error (maybe fixed) : 0
Duplicated bytes error (maybe fixed) : 0
Inconsistency in error sectors : 0
Track 13
Filename : /Volumes/Rips/Charpentier - David Jonathan (2009) [FLAC] {Pinchgut Opera}/CD2/13 - 13 ACTE V. Bruit d'armes.flac
Track gain : -0.80 dB
Peak : 0.635376
CRC32 hash (test run) : 2F23FF52
CRC32 hash : 2F23FF52
CRC32 hash (skip zero) : 43A8E40C
AccurateRip signature : 468301F9
->Track not present in AccurateRip database.
Statistics
Read error : 0
Skipped (treated as error) : 0
Edge jitter error (maybe fixed) : 0
Atom jitter error (maybe fixed) : 0
Drift error (maybe fixed) : 0
Dropped bytes error (maybe fixed) : 0
Duplicated bytes error (maybe fixed) : 0
Inconsistency in error sectors : 0
Track 14
Filename : /Volumes/Rips/Charpentier - David Jonathan (2009) [FLAC] {Pinchgut Opera}/CD2/14 - 14 Courez, courez, Saul attend un secours necessaire.flac
Track gain : -3.00 dB
Peak : 0.587280
CRC32 hash (test run) : 78AA5B1A
CRC32 hash : 78AA5B1A
CRC32 hash (skip zero) : FFB3A0A8
AccurateRip signature : 0A910116
->Track not present in AccurateRip database.
Statistics
Read error : 0
Skipped (treated as error) : 0
Edge jitter error (maybe fixed) : 0
Atom jitter error (maybe fixed) : 0
Drift error (maybe fixed) : 0
Dropped bytes error (maybe fixed) : 0
Duplicated bytes error (maybe fixed) : 0
Inconsistency in error sectors : 0
Track 15
Filename : /Volumes/Rips/Charpentier - David Jonathan (2009) [FLAC] {Pinchgut Opera}/CD2/15 - 15 Que vois-je quoi, je perds et mon fils et l'empire!.flac
Track gain : 2.41 dB
Peak : 0.689545
CRC32 hash (test run) : 19F769C7
CRC32 hash : 19F769C7
CRC32 hash (skip zero) : 8C03C7EC
AccurateRip signature : 7F5E0CF3
->Track not present in AccurateRip database.
Statistics
Read error : 0
Skipped (treated as error) : 0
Edge jitter error (maybe fixed) : 0
Atom jitter error (maybe fixed) : 0
Drift error (maybe fixed) : 0
Dropped bytes error (maybe fixed) : 0
Duplicated bytes error (maybe fixed) : 0
Inconsistency in error sectors : 0
Track 16
Filename : /Volumes/Rips/Charpentier - David Jonathan (2009) [FLAC] {Pinchgut Opera}/CD2/16 - 16 Victoire! Victoire!.flac
Track gain : -0.02 dB
Peak : 0.603851
CRC32 hash (test run) : 312378A3
CRC32 hash : 312378A3
CRC32 hash (skip zero) : 0E924B6F
AccurateRip signature : 5E112F4D
->Track not present in AccurateRip database.
Statistics
Read error : 0
Skipped (treated as error) : 0
Edge jitter error (maybe fixed) : 0
Atom jitter error (maybe fixed) : 0
Drift error (maybe fixed) : 0
Dropped bytes error (maybe fixed) : 0
Duplicated bytes error (maybe fixed) : 0
Inconsistency in error sectors : 0
Track 17
Filename : /Volumes/Rips/Charpentier - David Jonathan (2009) [FLAC] {Pinchgut Opera}/CD2/17 - 17 Qu'on sauve Jonathas.flac
Track gain : -0.58 dB
Peak : 0.690552
CRC32 hash (test run) : 65F8B96D
CRC32 hash : 65F8B96D
CRC32 hash (skip zero) : 2A38C808
AccurateRip signature : D88C6EC0
->Track not present in AccurateRip database.
Statistics
Read error : 0
Skipped (treated as error) : 0
Edge jitter error (maybe fixed) : 0
Atom jitter error (maybe fixed) : 0
Drift error (maybe fixed) : 0
Dropped bytes error (maybe fixed) : 0
Duplicated bytes error (maybe fixed) : 0
Inconsistency in error sectors : 0
Track 18
Filename : /Volumes/Rips/Charpentier - David Jonathan (2009) [FLAC] {Pinchgut Opera}/CD2/18 - 18 Voi traitre, et reconnoi ta nouvelle victime.flac
Track gain : 3.34 dB
Peak : 0.720062
CRC32 hash (test run) : C0F45728
CRC32 hash : C0F45728
CRC32 hash (skip zero) : 47F15073
AccurateRip signature : FC95963B
->Track not present in AccurateRip database.
Statistics
Read error : 0
Skipped (treated as error) : 0
Edge jitter error (maybe fixed) : 0
Atom jitter error (maybe fixed) : 0
Drift error (maybe fixed) : 0
Dropped bytes error (maybe fixed) : 0
Duplicated bytes error (maybe fixed) : 0
Inconsistency in error sectors : 0
Track 19
Filename : /Volumes/Rips/Charpentier - David Jonathan (2009) [FLAC] {Pinchgut Opera}/CD2/19 - 19 Joignez a vos exploits l'honneur du diademe.flac
Track gain : 0.01 dB
Peak : 0.675873
CRC32 hash (test run) : A85ACACC
CRC32 hash : A85ACACC
CRC32 hash (skip zero) : 76AA7067
AccurateRip signature : 00C6B54C
->Track not present in AccurateRip database.
Statistics
Read error : 0
Skipped (treated as error) : 0
Edge jitter error (maybe fixed) : 0
Atom jitter error (maybe fixed) : 0
Drift error (maybe fixed) : 0
Dropped bytes error (maybe fixed) : 0
Duplicated bytes error (maybe fixed) : 0
Inconsistency in error sectors : 0
Track 20
Filename : /Volumes/Rips/Charpentier - David Jonathan (2009) [FLAC] {Pinchgut Opera}/CD2/20 - 20 Du plus grand des heros.flac
Track gain : -2.74 dB
Peak : 0.895447
CRC32 hash (test run) : BAC24C78
CRC32 hash : BAC24C78
CRC32 hash (skip zero) : E3845E68
AccurateRip signature : E54EFAF7
->Track not present in AccurateRip database.
Statistics
Read error : 0
Skipped (treated as error) : 0
Edge jitter error (maybe fixed) : 0
Atom jitter error (maybe fixed) : 0
Drift error (maybe fixed) : 0
Dropped bytes error (maybe fixed) : 0
Duplicated bytes error (maybe fixed) : 0
Inconsistency in error sectors : 0
No errors occurred
End of status report

Содержание индексной карты (.CUE)

CD1

скрытый текст

TITLE "Charpentier - David Jonathan, Pinchgut Opera CD1"
PERFORMER "Pinchgut Opera, Orchestra of the Antipodes, Walker"
REM GENRE "Classical"
REM DATE 2009
REM REPLAYGAIN_ALBUM_GAIN -1.57 dB
REM REPLAYGAIN_ALBUM_PEAK 0.811127
FILE "01 - 1 PROLOGUE. Ouverture.wav" WAVE
TRACK 01 AUDIO
TITLE "1 PROLOGUE. Ouverture"
SONGWRITER "Charpentier, Marc-Antoine"
ISRC AUAB00950786
REM REPLAYGAIN_TRACK_GAIN 0.93 dB
REM REPLAYGAIN_TRACK_PEAK 0.563629
INDEX 01 00:00:00
FILE "02 - 2 Ou suis-je.wav" WAVE
TRACK 02 AUDIO
TITLE "2 Ou suis-je"
SONGWRITER "Charpentier, Marc-Antoine"
ISRC AUAB00950787
REM REPLAYGAIN_TRACK_GAIN -1.41 dB
REM REPLAYGAIN_TRACK_PEAK 0.766083
INDEX 01 00:00:00
FILE "03 - 3 Dois-je enfin eprouver le secours de vos charmes.wav" WAVE
TRACK 03 AUDIO
TITLE "3 Dois-je enfin eprouver le secours de vos charmes"
SONGWRITER "Charpentier, Marc-Antoine"
ISRC AUAB00950788
REM REPLAYGAIN_TRACK_GAIN 0.44 dB
REM REPLAYGAIN_TRACK_PEAK 0.616302
INDEX 01 00:00:00
FILE "04 - 4 Retirez-vous affreux tonnerre.wav" WAVE
TRACK 04 AUDIO
TITLE "4 Retirez-vous affreux tonnerre"
SONGWRITER "Charpentier, Marc-Antoine"
ISRC AUAB00950789
REM REPLAYGAIN_TRACK_GAIN -0.71 dB
REM REPLAYGAIN_TRACK_PEAK 0.806488
INDEX 01 00:00:00
FILE "05 - 5 Quelle importune voix vient troubler mon repos.wav" WAVE
TRACK 05 AUDIO
TITLE "5 Quelle importune voix vient troubler mon repos"
SONGWRITER "Charpentier, Marc-Antoine"
ISRC AUAB00950790
REM REPLAYGAIN_TRACK_GAIN 0.24 dB
REM REPLAYGAIN_TRACK_PEAK 0.613007
INDEX 01 00:00:00
FILE "06 - 6 C'est assez! ai-je enfin epuise ta colere.wav" WAVE
TRACK 06 AUDIO
TITLE "6 C'est assez! ai-je enfin epuise ta colere"
SONGWRITER "Charpentier, Marc-Antoine"
ISRC AUAB00950791
REM REPLAYGAIN_TRACK_GAIN -0.97 dB
REM REPLAYGAIN_TRACK_PEAK 0.701599
INDEX 01 00:00:00
FILE "07 - 7 ACTE I. Marche triomphante.wav" WAVE
TRACK 07 AUDIO
TITLE "7 ACTE I. Marche triomphante"
SONGWRITER "Charpentier, Marc-Antoine"
ISRC AUAB00950792
REM REPLAYGAIN_TRACK_GAIN -1.95 dB
REM REPLAYGAIN_TRACK_PEAK 0.772980
INDEX 01 00:00:00
FILE "08 - 8 Du plus grand des heros publions les exploits.wav" WAVE
TRACK 08 AUDIO
TITLE "8 Du plus grand des heros publions les exploits"
SONGWRITER "Charpentier, Marc-Antoine"
ISRC AUAB00950793
REM REPLAYGAIN_TRACK_GAIN -2.71 dB
REM REPLAYGAIN_TRACK_PEAK 0.808807
INDEX 01 00:00:00
FILE "09 - 9 Allez, le ciel jaloux.wav" WAVE
TRACK 09 AUDIO
TITLE "9 Allez, le ciel jaloux"
SONGWRITER "Charpentier, Marc-Antoine"
ISRC AUAB00950794
REM REPLAYGAIN_TRACK_GAIN 0.68 dB
REM REPLAYGAIN_TRACK_PEAK 0.557190
INDEX 01 00:00:00
FILE "10 - 10 Ciel! quel triste combat en ces lieux me rappelle.wav" WAVE
TRACK 10 AUDIO
TITLE "10 Ciel! quel triste combat en ces lieux me rappelle"
SONGWRITER "Charpentier, Marc-Antoine"
ISRC AUAB00950795
REM REPLAYGAIN_TRACK_GAIN -0.05 dB
REM REPLAYGAIN_TRACK_PEAK 0.665192
INDEX 01 00:00:00
FILE "11 - 11 Toi dans qui j'esperois toujours.wav" WAVE
TRACK 11 AUDIO
TITLE "11 Toi dans qui j'esperois toujours"
SONGWRITER "Charpentier, Marc-Antoine"
ISRC AUAB00950796
REM REPLAYGAIN_TRACK_GAIN -1.42 dB
REM REPLAYGAIN_TRACK_PEAK 0.745422
INDEX 01 00:00:00
FILE "12 - 12 Le ciel enfin favorable a mes voeux.wav" WAVE
TRACK 12 AUDIO
TITLE "12 Le ciel enfin favorable a mes voeux"
SONGWRITER "Charpentier, Marc-Antoine"
ISRC AUAB00950797
REM REPLAYGAIN_TRACK_GAIN -2.16 dB
REM REPLAYGAIN_TRACK_PEAK 0.802246
INDEX 01 00:00:00
FILE "13 - 13 ACTE II. Prelude.wav" WAVE
TRACK 13 AUDIO
TITLE "13 ACTE II. Prelude"
SONGWRITER "Charpentier, Marc-Antoine"
ISRC AUAB00950798
REM REPLAYGAIN_TRACK_GAIN 1.60 dB
REM REPLAYGAIN_TRACK_PEAK 0.489807
INDEX 01 00:00:00
FILE "14 - 14 Quel inutile soin en ces lieux vous arreste.wav" WAVE
TRACK 14 AUDIO
TITLE "14 Quel inutile soin en ces lieux vous arreste"
SONGWRITER "Charpentier, Marc-Antoine"
ISRC AUAB00950799
REM REPLAYGAIN_TRACK_GAIN 2.35 dB
REM REPLAYGAIN_TRACK_PEAK 0.493866
INDEX 01 00:00:00
FILE "15 - 15 Depit jaloux, haine cruelle.wav" WAVE
TRACK 15 AUDIO
TITLE "15 Depit jaloux, haine cruelle"
SONGWRITER "Charpentier, Marc-Antoine"
ISRC AUAB00950800
REM REPLAYGAIN_TRACK_GAIN -0.30 dB
REM REPLAYGAIN_TRACK_PEAK 0.806946
INDEX 01 00:00:00
FILE "16 - 16 A vostre bras vainqueur.wav" WAVE
TRACK 16 AUDIO
TITLE "16 A vostre bras vainqueur"
SONGWRITER "Charpentier, Marc-Antoine"
ISRC AUAB00950801
REM REPLAYGAIN_TRACK_GAIN -1.98 dB
REM REPLAYGAIN_TRACK_PEAK 0.811127
INDEX 01 00:00:00
CD2

скрытый текст

TITLE "Charpentier - David, Jonathan - Pinchgut Opera CD2"
PERFORMER "Pinchgut Opera, Orchestra of the Antipodes, Walker"
REM GENRE "Classical"
REM DATE 2009
FILE "01 - 1 ACTE III. Symphonie d'ouverture.wav" WAVE
TRACK 01 AUDIO
TITLE "1 ACTE III. Symphonie d'ouverture"
SONGWRITER "Charpentier, Marc-Antoine"
ISRC AUAB00950802
INDEX 01 00:00:00
FILE "02 - 2 Ah! je dois assurer et ma vie et l'empire.wav" WAVE
TRACK 02 AUDIO
TITLE "2 Ah! je dois assurer et ma vie et l'empire"
SONGWRITER "Charpentier, Marc-Antoine"
ISRC AUAB00950803
INDEX 01 00:00:00
FILE "03 - 3 Objet d'une implacable haine.wav" WAVE
TRACK 03 AUDIO
TITLE "3 Objet d'une implacable haine"
SONGWRITER "Charpentier, Marc-Antoine"
ISRC AUAB00950804
INDEX 01 00:00:00
FILE "04 - 4 David peut-il attendre un retour favorable.wav" WAVE
TRACK 04 AUDIO
TITLE "4 David peut-il attendre un retour favorable"
SONGWRITER "Charpentier, Marc-Antoine"
ISRC AUAB00950805
INDEX 01 00:00:00
FILE "05 - 5 ACTE IV. Prelude.wav" WAVE
TRACK 05 AUDIO
TITLE "5 ACTE IV. Prelude"
SONGWRITER "Charpentier, Marc-Antoine"
ISRC AUAB00950806
INDEX 01 00:00:00
FILE "06 - 6 Souverain juge des mortels.wav" WAVE
TRACK 06 AUDIO
TITLE "6 Souverain juge des mortels"
SONGWRITER "Charpentier, Marc-Antoine"
ISRC AUAB00950807
INDEX 01 00:00:00
FILE "07 - 7 Vous me fuiez!.wav" WAVE
TRACK 07 AUDIO
TITLE "7 Vous me fuiez!"
SONGWRITER "Charpentier, Marc-Antoine"
ISRC AUAB00950808
INDEX 01 00:00:00
FILE "08 - 8 A-t-on jamais souffert une plus rude peine.wav" WAVE
TRACK 08 AUDIO
TITLE "8 A-t-on jamais souffert une plus rude peine"
SONGWRITER "Charpentier, Marc-Antoine"
ISRC AUAB00950809
INDEX 01 00:00:00
FILE "09 - 9 Venez, Seigneur, venez. Saul va vous attendre.wav" WAVE
TRACK 09 AUDIO
TITLE "9 Venez, Seigneur, venez. Saul va vous attendre"
SONGWRITER "Charpentier, Marc-Antoine"
ISRC AUAB00950810
INDEX 01 00:00:00
FILE "10 - 10 Enfin vous m'ecoutez, Seigneur.wav" WAVE
TRACK 10 AUDIO
TITLE "10 Enfin vous m'ecoutez, Seigneur"
SONGWRITER "Charpentier, Marc-Antoine"
ISRC AUAB00950811
INDEX 01 00:00:00
FILE "11 - 11 Rigaudon.wav" WAVE
TRACK 11 AUDIO
TITLE "11 Rigaudon"
SONGWRITER "Charpentier, Marc-Antoine"
ISRC AUAB00950812
INDEX 01 00:00:00
FILE "12 - 12 Bouree.wav" WAVE
TRACK 12 AUDIO
TITLE "12 Bouree"
SONGWRITER "Charpentier, Marc-Antoine"
ISRC AUAB00950813
INDEX 01 00:00:00
FILE "13 - 13 ACTE V. Bruit d'armes.wav" WAVE
TRACK 13 AUDIO
TITLE "13 ACTE V. Bruit d'armes"
SONGWRITER "Charpentier, Marc-Antoine"
ISRC AUAB00950814
INDEX 01 00:00:00
FILE "14 - 14 Courez, courez, Saul attend un secours necessaire.wav" WAVE
TRACK 14 AUDIO
TITLE "14 Courez, courez, Saul attend un secours necessaire"
SONGWRITER "Charpentier, Marc-Antoine"
ISRC AUAB00950815
INDEX 01 00:00:00
FILE "15 - 15 Que vois-je quoi, je perds et mon fils et l'empire!.wav" WAVE
TRACK 15 AUDIO
TITLE "15 Que vois-je quoi, je perds et mon fils et l'empire!"
SONGWRITER "Charpentier, Marc-Antoine"
ISRC AUAB00950816
INDEX 01 00:00:00
FILE "16 - 16 Victoire! Victoire!.wav" WAVE
TRACK 16 AUDIO
TITLE "16 Victoire! Victoire!"
SONGWRITER "Charpentier, Marc-Antoine"
ISRC AUAB00950817
INDEX 01 00:00:00
FILE "17 - 17 Qu'on sauve Jonathas.wav" WAVE
TRACK 17 AUDIO
TITLE "17 Qu'on sauve Jonathas"
SONGWRITER "Charpentier, Marc-Antoine"
ISRC AUAB00950818
INDEX 01 00:00:00
FILE "18 - 18 Voi traitre, et reconnoi ta nouvelle victime.wav" WAVE
TRACK 18 AUDIO
TITLE "18 Voi traitre, et reconnoi ta nouvelle victime"
SONGWRITER "Charpentier, Marc-Antoine"
ISRC AUAB00950819
INDEX 01 00:00:00
FILE "19 - 19 Joignez a vos exploits l'honneur du diademe.wav" WAVE
TRACK 19 AUDIO
TITLE "19 Joignez a vos exploits l'honneur du diademe"
SONGWRITER "Charpentier, Marc-Antoine"
ISRC AUAB00950820
INDEX 01 00:00:00
FILE "20 - 20 Du plus grand des heros.wav" WAVE
TRACK 20 AUDIO
TITLE "20 Du plus grand des heros"
SONGWRITER "Charpentier, Marc-Antoine"
ISRC AUAB00950821
INDEX 01 00:00:00

Доп. информация:

David et Jonathas (David and Jonathan), H. 490, is an opera in five acts and a prologue by the French composer Marc-Antoine Charpentier, first performed at the Collège Louis-le-Grand, Paris on 25 February 1688. The libretto, by Father François Bretonneau S.J., is based on the Old Testament story of the friendship between David and Jonathan. Although the opera takes the form of a typical French tragédie en musique it has also been referred to as a tragédie biblique because of its Biblical subject matter. David et Jonathas was first performed at a Jesuit college in combination with a spoken drama in Latin, Saul, by Father Étienne Chamillard. Each act of the opera was followed by one act from the play. Charpentier's work was so successful, it was reprised at other Jesuit colleges in 1706, 1715 and 1741.
**************
Chamber opera has a special magic: an intimacy and immediacy not found in the more elaborate productions of grand opera. The founders of Pinchgut Opera are a group of professional musicians, arts administrators and music lovers who discovered they shared a dream to build something different in the musical life of Sydney. Several previous performances have been recorded live for release on ABC Classics, garnering fabulous reviews as far afield as the BBC!
Pinchgut performed Charpentier's David & Jonathan in 2008 on period instruments. This beautiful and engaging French Baroque opera brings to life the Biblical story of a friendship which surmounts political, religious and even family differences.
Features Anders J. Dahlin, Sara Macliver, Dean Robinson, Richard Anderson and many more.
Synopsis
Prologue
Saul, King of Israel, visits the "Pythoness" (the Witch of Endor in the Bible) in disguise to learn the outcome of his forthcoming battle against the Philistines. The Pythoness raises the ghost of the prophet Samuel, who predicts that Saul will lose everything: his children, his friends and his crown.
Act 1
David has been banished by the jealous Saul and has taken refuge with the Philistines. He returns to the Philistine camp from a victory. A chorus of warriors, shepherds and captives he has freed sing his praises. David only wishes that, whatever may come, his best friend Jonathan (Saul's son) should be spared. The Philistine king tells David that a truce has been arranged between the Philistines and Saul to discuss whether there shall be peace or war.
Act 2
During the truce, David and Jonathan seek each other out. The Israelite general Joabel is jealous of David and challenges him to single combat, which David refuses. Joabel plots against him and decides to tell Saul that the proposed peace is merely a trick by David.
Act 3
Joabel easily persuades the jealous Saul that David is plotting his downfall. Saul accuses David of treason and he is forced to leave.
Act 4
Saul decides to fight the Philistines and destroy David. The two armies, stirred up by Joabel, are also eager for war. David reluctantly parts from Jonathan, promising he will do all he can to save him and his father.
Act 5
The battle is fought and Saul loses. Jonathan is mortally wounded and dies in David's arms. Saul falls on his own sword to evade capture. Achis tells David he is the new king of the Israelites but this is little consolation in his grief for Jonathan.
Review by Stephen Eddins
Pinchgut Opera, based in Sydney and founded in 2002, specializes in Baroque and Classical opera, featuring works such as Semele, The Fairy Queen, Idomeneo, and Orfeo. One of its more obscure repertoire choices is Marc-Antoine Charpentier's 1688 David & Jonathan. It's a work that's rarely performed or recorded, so this fine performance is revelatory. The libretto by François de Paule Bretonneau generally sticks to the story as outlined in the First Book of Samuel, focusing on King Saul's enmity with David, David's friendship, (or love), for Saul's son Jonathan, and his grief over the deaths of Jonathan and Saul, but the librettist invents a villainous general, Joabel, whose jealousy triggers the fatal battle. He also adds a reunion between David and Jonathan before the latter's death, and treats their relationship as clearly romantic, which must explain Charpentier's decision to cast Jonathan as a soprano. (On the other hand, the composer may have been motivated by the need for a woman's voice in a leading role in a cast that, except for the chorus, is all-male.) Charpentier's writing is always elegant, but it is also psychologically penetrating. His orchestration is particularly apt in underscoring the drama, and his choral writing is varied and gorgeously rich.
Anders J. Dahlin, as David, is an authentic contre-haute who can negotiate the extremely high tenor part with easy assurance. His tone is ringing, warm, and rounded, with none of the tightness that can characterize more conventional tenors attempting this repertoire. He is a fine musician besides, who understands the conventions of the French Baroque, and makes the highly ornamented lines sound spontaneous and effortless. His performance is well-developed dramatically, and he makes a convincingly human David. Sara Madiwar's Jonathan is exceptionally sweet-voiced and pure. Most of the remaining principals are very fine; bass David Parkin is darkly menacing as the ghost of Samuel, and baritones Richard Anderson and Simon Lobelson are fully effective as Achis and Joabel. Dean Anderson lacks the vocal power and dramatic weight to give Saul credibility, and tenor Paul McMahon is shaky as the Witch who summons Samuel. Anthony Walker leads Orchestra of the Antipodes and the chorus Cantillation in a graceful but urgent reading of the score that is enlivened by a strong understanding of middle-Baroque French performance practice. The sound is good for a live performance, and there is minimal ancillary noise, mostly rustling page turns. This set should interest any fans of Baroque opera.
[teatrix.ru].t12365.torrent 
Торрент: Зарегистрирован [ 2015-12-23 17:45 ] · FCC5DC7A3BCCEEA2F981E0AE403134947D5E9C3E

Скачать .torrent

Скачать

16 KB

Статус: проверено
Скачан: 1 раз
Размер: 616 MB
terms.php



Быстрый ответ

Имя:

      
Для отправки сообщений необходимо включить JavaScript
Показать сообщения:    

Текущее время: 08-Дек 07:02

Часовой пояс: UTC + 3


Вы можете начинать темы
Вы можете отвечать на сообщения
Вы не можете редактировать свои сообщения
Вы не можете удалять свои сообщения
Вы не можете голосовать в опросах
Вы не можете прикреплять файлы к сообщениям
Вы можете скачивать файлы