(Neo Classical) [CD] Rondo Veneziano - The Magic Of Christmas - 2001, FLAC (image+.cue) lossless


 

[Цитировать]

Rondo Veneziano - The Magic Of Christmas Жанр: Neo Classical
Год издания диска: 2001
Издатель (лейбл): BMG/Ariola Express
Номер по каталогу: 74321 85916 2
Аудиокодек: FLAC
Тип рипа: image+.cue
Битрейт аудио: lossless
Продолжительность: 59:49
Rip by Boris1
Наличие сканов в содержимом раздачи: да
Треклист:
01. Ave Maria (4:56)
02. Christmas Suite (Medley) (6:02)
03. Deserti Lontani (3:54)
04. Donna Lucrezia (3:02)
05. Incontro (2:26)
06. Laudamus Jesus (3:09)
07. Litorali (5:14)
08. Miniature (3:06)
09. Sinfonia di Natale (4:50)
10. Nonna Favola (2:56)
11. Oboe d'amore (2:40)
12. Petit Papa Noël (2:07)
13. Stille Nacht (3:24)
14. Suite di Natale (Medley) (3:52)
15. Weihnacht Suite (Medley) (4:53)
16. White Chrismas (3:18)
 

Лог создания рипа

Exact Audio Copy V1.0 beta 3 from 29. August 2011
EAC extraction logfile from 9. December 2015, 14:05
Rondò Veneziano / The Magic of Christmas
Used drive : PIONEER BD-RW BDR-TD03 Adapter: 0 ID: 1
Read mode : SecureUtilize accurate stream : YesDefeat audio cache : YesMake use of C2 pointers : No
Read offset correction : 667Overread into Lead-In and Lead-Out : NoFill up missing offset samples with silence : YesDelete leading and trailing silent blocks : NoNull samples used in CRC calculations : YesUsed interface : Native Win32 interface for Win NT & 2000
Used output format : User Defined EncoderSelected bitrate : 768 kBit/sQuality : HighAdd ID3 tag : NoCommand line compressor : C:\Program Files (x86)\Exact Audio Copy\FLAC\FLAC.EXEAdditional command line options : -6 -V -T "ARTIST=%artist%" -T "TITLE=%title%" -T "ALBUM=%albumtitle%" -T "DATE=%year%" -T "TRACKNUMBER=%tracknr%" -T "GENRE=%genre%" -T "COMMENT=%comment%" -T "BAND=%albuminterpret%" -T "ALBUMARTIST=%albuminterpret%" -T "COMPOSER=%composer%" %haslyrics%--tag-from-file=LYRICS="%lyricsfile%"%haslyrics% -T "DISCNUMBER=%cdnumber%" -T "TOTALDISCS=%totalcds%" -T "TOTALTRACKS=%numtracks%" %hascover%--picture="%coverfile%"%hascover% %source% -o %dest%
TOC of the extracted CD
Track | Start | Length | Start sector | End sector --------------------------------------------------------- 1 | 0:00.00 | 4:56.24 | 0 | 22223 2 | 4:56.24 | 6:02.19 | 22224 | 49392 3 | 10:58.43 | 3:53.57 | 49393 | 66924 4 | 14:52.25 | 3:01.60 | 66925 | 80559 5 | 17:54.10 | 2:25.70 | 80560 | 91504 6 | 20:20.05 | 3:09.31 | 91505 | 105710 7 | 23:29.36 | 5:13.55 | 105711 | 129240 8 | 28:43.16 | 3:05.50 | 129241 | 143165 9 | 31:48.66 | 4:50.12 | 143166 | 164927 10 | 36:39.03 | 2:56.33 | 164928 | 178160 11 | 39:35.36 | 2:39.64 | 178161 | 190149 12 | 42:15.25 | 2:06.73 | 190150 | 199672 13 | 44:22.23 | 3:24.23 | 199673 | 214995 14 | 47:46.46 | 3:51.45 | 214996 | 232365 15 | 51:38.16 | 4:52.48 | 232366 | 254313 16 | 56:30.64 | 3:17.70 | 254314 | 269158
Range status and errors
Selected range
Filename C:\Users\Deris\Desktop\kpnemo.eu\rondoChris\Rondò Veneziano - The Magic of Christmas.wav
Peak level 95.6 % Extraction speed 4.8 X Range quality 100.0 % Test CRC A9B34626 Copy CRC A9B34626 Copy OK
No errors occurred
AccurateRip summary
Track 1 accurately ripped (confidence 21) [84B93BC2] (AR v2)Track 2 accurately ripped (confidence 21) [9FA1637D] (AR v2)Track 3 accurately ripped (confidence 21) [7C291D49] (AR v2)Track 4 accurately ripped (confidence 21) [C5CE3821] (AR v2)Track 5 accurately ripped (confidence 21) [E08825BB] (AR v2)Track 6 accurately ripped (confidence 20) [D9B7F7E5] (AR v2)Track 7 accurately ripped (confidence 21) [E9B75B21] (AR v2)Track 8 accurately ripped (confidence 21) [A8D8894C] (AR v2)Track 9 accurately ripped (confidence 21) [DACB1881] (AR v2)Track 10 accurately ripped (confidence 21) [F157F02C] (AR v2)Track 11 accurately ripped (confidence 21) [C999E260] (AR v2)Track 12 accurately ripped (confidence 20) [D4837706] (AR v2)Track 13 accurately ripped (confidence 21) [2BBC1059] (AR v2)Track 14 accurately ripped (confidence 21) [7B0F6924] (AR v2)Track 15 accurately ripped (confidence 20) [04A1A3F7] (AR v2)Track 16 accurately ripped (confidence 21) [9504BCCE] (AR v2)
All tracks accurately ripped
End of status report
---- CUETools DB Plugin V2.1.3
[CTDB TOCID: CMSyu7nRk13BRDyNDkQmcGfKC1k-] found, Submit result: CMSyu7nRk13BRDyNDkQmcGfKC1k- has been confirmed[2ed607d5] (36/37) Accurately ripped[091ea912] (01/37) Differs in 1 samples @46:54:15You can use CUETools to repair this rip.
==== Log checksum 937B1F04197811BBA0FD93DC1C7BDF2D5AE7EC804C8E5A18F64ED49A61F55EC4 ====

Содержание индексной карты (.CUE)

REM GENRE ClassicalREM DATE 2001REM DISCID D40E0410REM COMMENT "ExactAudioCopy v1.0b3"PERFORMER "Rondò Veneziano"TITLE "The Magic Of Christmas"FILE "Rondo Veneziano - The Magic Of Christmas.flac" WAVE TRACK 01 AUDIO TITLE "Ave Maria" PERFORMER "Rondò Veneziano" INDEX 01 00:00:00 TRACK 02 AUDIO TITLE "Christmas Suite (Medley)" PERFORMER "Rondò Veneziano" INDEX 00 04:54:42 INDEX 01 04:56:24 TRACK 03 AUDIO TITLE "Deserti Lontani" PERFORMER "Rondò Veneziano" INDEX 00 10:56:61 INDEX 01 10:58:43 TRACK 04 AUDIO TITLE "Donna Lucrezia" PERFORMER "Rondò Veneziano" INDEX 00 14:50:43 INDEX 01 14:52:25 TRACK 05 AUDIO TITLE "Incontro" PERFORMER "Rondò Veneziano" INDEX 00 17:52:27 INDEX 01 17:54:10 TRACK 06 AUDIO TITLE "Laudamus Jesus" PERFORMER "Rondò Veneziano" INDEX 00 20:18:23 INDEX 01 20:20:05 TRACK 07 AUDIO TITLE "Litorali" PERFORMER "Rondò Veneziano" INDEX 00 23:27:54 INDEX 01 23:29:36 TRACK 08 AUDIO TITLE "Miniature" PERFORMER "Rondò Veneziano" INDEX 00 28:41:34 INDEX 01 28:43:16 TRACK 09 AUDIO TITLE "Sinfonia di Natale" PERFORMER "Rondò Veneziano" INDEX 00 31:47:11 INDEX 01 31:48:66 TRACK 10 AUDIO TITLE "Nonna Favola" PERFORMER "Rondò Veneziano" INDEX 00 36:37:21 INDEX 01 36:39:03 TRACK 11 AUDIO TITLE "Oboe d'amore" PERFORMER "Rondò Veneziano" INDEX 00 39:33:53 INDEX 01 39:35:36 TRACK 12 AUDIO TITLE "Petit Papa Noël" PERFORMER "Rondò Veneziano" INDEX 00 42:13:43 INDEX 01 42:15:25 TRACK 13 AUDIO TITLE "Stille Nacht" PERFORMER "Rondò Veneziano" INDEX 00 44:20:42 INDEX 01 44:22:23 TRACK 14 AUDIO TITLE "Suite di Natale (Medley)" PERFORMER "Rondò Veneziano" INDEX 00 47:44:64 INDEX 01 47:46:46 TRACK 15 AUDIO TITLE "Weihnacht Suite (Medley)" PERFORMER "Rondò Veneziano" INDEX 00 51:36:35 INDEX 01 51:38:16 TRACK 16 AUDIO TITLE "White Chrismas" PERFORMER "Rondò Veneziano" INDEX 00 56:29:07 INDEX 01 56:30:64



Показать сообщения:    

Текущее время: 03-Дек 09:47

Часовой пояс: UTC + 3


Вы не можете начинать темы
Вы не можете отвечать на сообщения
Вы не можете редактировать свои сообщения
Вы не можете удалять свои сообщения
Вы не можете голосовать в опросах
Вы не можете прикреплять файлы к сообщениям
Вы не можете скачивать файлы