Будущее / Il Futuro (Алисия Шерсон / Alicia Sherson) [2013, Чили, драма, WEB-DLRip] MVO (HamsterStudio) + MVO (Канал Точка Zрения) + Sub Rus + Original Ita


Статистика раздачи [Обновить пиров]
Размер:  1.8 GB   |    Зарегистрирован:  1 год   |    Скачан:  0 раз

Полного источника не было: Никогда

Личеров:  2  [  0 KB/s  ]   Подробная статистика пиров
 
   
 
 
 

[Цитировать]

Будущее / Il Futuro
Страна: Чили
Жанр: драма
Год выпуска: 2013
Продолжительность: 01:35:17
Перевод: Любительский (многоголосый закадровый) - HamsterStudio
Перевод: Любительский (многоголосый закадровый) - Канал Точка Zрения
Cубтитры: русские (steelhawk)
Оригинальная аудиодорожка: итальянский

Режиссер: Алисия Шерсон / Alicia Sherson
В ролях: Рутгер Хауэр, Мануэла Мартелли, Луиджи Чиардо, Николас Вапоридис, Алессандро Джаллокоста, Пино Калабрезе
Описание: Когда их родители умирают, Бьянка начинает курить, а Томас все еще девственник. Сироты исследуют «опасные улицы взрослой жизни», пока Бьянка не находит Мачисте, бывшего мистера Вселенная, и входит в его темный особняк…

Качество видео: WEB-DLRip
Формат видео: AVI
Видео: 704x384 (1.83:1), 25 fps, XviD build 73 ~1794 kbps avg, 0.27 bit/pixel
Аудио: 48 kHz, AC3 Dolby Digital, 3/2 (L,C,R,l,r) + LFE ch, ~384 kbps - HamsterStudio
отдельными файлами
Аудио: 48 kHz, MPEG Layer 3, 2 ch, ~128.00 kbps avg - Точка зрения
Аудио: 48 kHz, AC3 Dolby Digital, 3/2 (L,C,R,l,r) + LFE ch, ~384 kbps - оригинал

MediaInfo

Общее
Полное имя : H:\Il.futuro.2013.web-dlrip_[1.46]_[teko]\Il.futuro.2013.web-dlrip_[1.46].avi
Формат : AVI
Формат/Информация : Audio Video Interleave
Размер файла : 1,46 Гбайт
Продолжительность : 1 ч. 35 м.
Общий поток : 2189 Кбит/сек
Программа кодирования : VirtualDubMod 1.5.10.3 | www.virtualdub-fr.org || (build 2550/release)
Библиотека кодирования : VirtualDubMod build 2550/release
Видео
Идентификатор : 0
Формат : MPEG-4 Visual
Профиль формата : Advanced Simple@L5
Параметр BVOP формата : 1
Параметр QPel формата : Нет
Параметр GMC формата : Без точки перехода
Параметр матрицы формата : Выборочная
Идентификатор кодека : XVID
Идентификатор кодека/Подсказка : XviD
Продолжительность : 1 ч. 35 м.
Битрейт : 1795 Кбит/сек
Ширина : 704 пикселя
Высота : 384 пикселя
Соотношение сторон : 1,85:1
Частота кадров : 25,000 кадров/сек
Цветовое пространство : YUV
Субдискретизация насыщенности : 4:2:0
Битовая глубина : 8 бит
Тип развёртки : Прогрессивная
Метод сжатия : С потерями
Бит/(Пиксели*Кадры) : 0.266
Размер потока : 1,19 Гбайт (82%)
Библиотека кодирования : XviD 73
Аудио
Идентификатор : 1
Формат : AC-3
Формат/Информация : Audio Coding 3
Расширение режима : CM (complete main)
Параметр Endianness формата : Big
Идентификатор кодека : 2000
Продолжительность : 1 ч. 35 м.
Вид битрейта : Постоянный
Битрейт : 384 Кбит/сек
Каналы : 6 каналов
Расположение каналов : Front: L C R, Side: L R, LFE
Частота : 48,0 КГц
Битовая глубина : 16 бит
Метод сжатия : С потерями
Размер потока : 262 Мбайт (18%)
Выравнивание : Разделение по промежуткам
Продолжительность промежутка : 40 мс. (1,00 видеокадр)
Время предзагрузки промежутка : 500 мс.
[teatrix.ru].t12369.torrent 
Торрент: Зарегистрирован [ 2015-12-23 22:10 ] · 63F260248F126462139C8208AB7A38B51E32B797

Скачать .torrent

Скачать

19 KB

Статус: проверено
Скачан: 0 раз
Размер: 1.8 GB
terms.php



Быстрый ответ

Имя:

      
Для отправки сообщений необходимо включить JavaScript
Показать сообщения:    

Текущее время: 18-Янв 00:23

Часовой пояс: UTC + 3


Вы можете начинать темы
Вы можете отвечать на сообщения
Вы не можете редактировать свои сообщения
Вы не можете удалять свои сообщения
Вы не можете голосовать в опросах
Вы не можете прикреплять файлы к сообщениям
Вы можете скачивать файлы