Милу в мае / Milou en mai (Луи Маль / Louis Malle) [1990, Франция, Италия, драма, комедия, BDRip] MVO (Cinema Prestige) + DVO (Пифагор) + Sub Rus + Original Fre


Статистика раздачи [Обновить пиров]
Размер:  1.74 GB   |    Зарегистрирован:  11 месяцев 15 дней   |    Скачан:  0 раз

Полного источника не было: Никогда

Личеров:  3  [  0 KB/s  ]   Подробная статистика пиров
 
   
 
 
 

[Цитировать]

Милу в мае / Milou en mai
Страна: Франция, Италия
Жанр: драма, комедия
Год выпуска: 1990
Продолжительность: 01:46:47
Перевод: Профессиональный (многоголосый закадровый) - Cinema Prestige
Перевод: Профессиональный (двухголосый закадровый) - студия "Пифагор"
Cубтитры: русские, английские
Оригинальная аудиодорожка: французский

Режиссер: Луи Маль / Louis Malle
В ролях: Миу-Миу, Мишель Пикколи, Мишель Дюшоссуа, Полетт Дюбо, Бруно Каретт, Харриет Уолтер, Жанна Арри, Мартина Готье, Рено Дэннер, Франсуа Берлеан, Доминик Блан
Описание: Многочисленное семейство собирается в провинциальном поместье на похороны бабушки. Тело отошедшей в лучший мир старушки лежит в библиотеке (погребение отодвигается из-за забастовки могильщиков), а нетерпеливая родня приступает к дележу наследства…
Качество видео: BDRip
Формат видео: AVI
Видео: 688x416 (1.65:1), 24 fps, XviD build 73 ~1749 kbps avg, 0.25 bit/pixel
Аудио: 48 kHz, AC3 Dolby Digital, 2/0 (L,R) ch, ~192 kbps - многоголосый
отдельными файлами:
Аудио: 48 kHz, AC3 Dolby Digital, 2/0 (L,R) ch, ~192 kbps - двухголосый
Аудио: 48 kHz, AC3 Dolby Digital, 2/0 (L,R) ch, ~192 kbps - оригинал

MediaInfo

Общее
Полное имя : H:\Milou.en.mai.1990.bdrip_[1.46]_[teko]\Milou.en.mai.1990.bdrip_[1.46].avi
Формат : AVI
Формат/Информация : Audio Video Interleave
Размер файла : 1,46 Гбайт
Продолжительность : 1 ч. 46 м.
Общий поток : 1951 Кбит/сек
Программа кодирования : VirtualDubMod 1.5.10.3 | www.virtualdub-fr.org || (build 2550/release)
Библиотека кодирования : VirtualDubMod build 2550/release
Видео
Идентификатор : 0
Формат : MPEG-4 Visual
Профиль формата : Advanced Simple@L5
Параметр BVOP формата : 1
Параметр QPel формата : Нет
Параметр GMC формата : Без точки перехода
Параметр матрицы формата : Выборочная
Идентификатор кодека : XVID
Идентификатор кодека/Подсказка : XviD
Продолжительность : 1 ч. 46 м.
Битрейт : 1750 Кбит/сек
Ширина : 688 пикселей
Высота : 416 пикселей
Соотношение сторон : 1,654
Частота кадров : 24,000 кадра/сек
Цветовое пространство : YUV
Субдискретизация насыщенности : 4:2:0
Битовая глубина : 8 бит
Тип развёртки : Прогрессивная
Метод сжатия : С потерями
Бит/(Пиксели*Кадры) : 0.255
Размер потока : 1,31 Гбайт (90%)
Библиотека кодирования : XviD 73
Аудио
Идентификатор : 1
Формат : AC-3
Формат/Информация : Audio Coding 3
Расширение режима : CM (complete main)
Параметр Endianness формата : Big
Идентификатор кодека : 2000
Продолжительность : 1 ч. 46 м.
Вид битрейта : Постоянный
Битрейт : 192 Кбит/сек
Каналы : 2 канала
Расположение каналов : Front: L R
Частота : 48,0 КГц
Битовая глубина : 16 бит
Метод сжатия : С потерями
Размер потока : 147 Мбайт (10%)
Выравнивание : Разделение по промежуткам
Продолжительность промежутка : 42 мс. (1,00 видеокадр)
Время предзагрузки промежутка : 500 мс.
[teatrix.ru].t12370.torrent 
Торрент: Зарегистрирован [ 2015-12-23 22:10 ] · FF030ECA5318D645213882FD35AE7729DA549B3A

Скачать .torrent

Скачать

18 KB

Статус: проверено
Скачан: 0 раз
Размер: 1.74 GB
terms.php



Быстрый ответ

Имя:

      
Для отправки сообщений необходимо включить JavaScript
Показать сообщения:    

Текущее время: 08-Дек 14:55

Часовой пояс: UTC + 3


Вы можете начинать темы
Вы можете отвечать на сообщения
Вы не можете редактировать свои сообщения
Вы не можете удалять свои сообщения
Вы не можете голосовать в опросах
Вы не можете прикреплять файлы к сообщениям
Вы можете скачивать файлы