Низко летящий самолёт / Low-Flying Aircraft (Солвейг Нордлунд / Solveig Nordlund) [2002, Швеция, Португалия, фантастика, триллер, DVDRip] (Mark Silinio, Генрих фон-Гуттенарбех и substratus) + Sub Rus + Original Por


Статистика раздачи [Обновить пиров]
Размер:  1.39 GB   |    Зарегистрирован:  11 месяцев 15 дней   |    Скачан:  0 раз

Полного источника не было: Никогда

Личеров:  2  [  0 KB/s  ]   Подробная статистика пиров
 
   
 
 
 

[Цитировать]

Низко летящий самолёт / Low-Flying Aircraft
Страна: Швеция, Португалия
Жанр: фантастика, триллер
Год выпуска: 2002
Продолжительность: 01:17:02
Перевод: Субтитры Mark Silinio, Генрих фон-Гуттенарбех и substratus
Cубтитры: русские
Оригинальная аудиодорожка: португальский
Режиссер: Солвейг Нордлунд / Solveig Nordlund
В ролях: Margarida Marinho, Мигел Гильерми, Руй Моррисон, Рита Со, Канту и Кастру, Ismael Lourenço, Шила Бьюкэнэн, Мария Дуарте Перейра, Фернанда Дуарте, Жозе Пинту
Описание: Фильм основан на одноимённом рассказе Джеймса Балларда. В недалёком будущём население планеты медленно вымирает, на свет появляются преимущественно "Зоты",- дети с сильными генетическими отклонениями и они подлежат уничтожению. Молодая пара приезжает в отель с подтверждением что их будущий ребёнок будет нормальным...
Доп. информация: http://www.kinopoisk.ru/level/1/film/232894/
http://www.imdb.com/title/tt0190975/
http://www.ballardian.com/like-alice-in-wonderland-nordlund-on-ballard
http://www.bbc.co.uk/bbcfour/cinema/features/low-flying-aircraft.shtml
Сэмпл: http://multi-up.com/1080628
Качество видео: DVDRip
Формат видео: AVI
Видео: DivX, 718x432, 16:9, 25 кадр/сек, 2357 Кбит/сек
Аудио: MP3, 48000Гц, 224 Кбит/сек, 2 канала
Формат субтитров: softsub (SRT)

MediaInfo

General
Complete name : /Volumes/data/Other/Low-Flying Aircraft (2002)/Low-Flying Aircraft.avi
Format : AVI
Format/Info : Audio Video Interleave
Format profile : OpenDML
File size : 1.39 GiB
Duration : 1h 17mn
Overall bit rate mode : Variable
Overall bit rate : 2 592 Kbps
Writing application : MEncoder 1.1-4.2.1
Writing library : MPlayer
Video
ID : 0
Format : MPEG-4 Visual
Format profile : Simple@L1
Format settings, BVOP : No
Format settings, QPel : No
Format settings, GMC : No warppoints
Format settings, Matrix : Default (H.263)
Codec ID : divx
Codec ID/Info : Mainly used by Google
Codec ID/Hint : DivX
Duration : 1h 17mn
Bit rate : 2 357 Kbps
Width : 718 pixels
Height : 432 pixels
Display aspect ratio : 1.662
Frame rate : 25.000 fps
Color space : YUV
Chroma subsampling : 4:2:0
Bit depth : 8 bits
Scan type : Progressive
Compression mode : Lossy
Bits/(Pixel*Frame) : 0.304
Stream size : 1.27 GiB (91%)
Writing library : Lavc54.23.100
Audio
ID : 1
Format : MPEG Audio
Format version : Version 1
Format profile : Layer 3
Mode : Joint stereo
Codec ID : 55
Codec ID/Hint : MP3
Duration : 1h 17mn
Bit rate mode : Variable
Bit rate : 224 Kbps
Channel(s) : 2 channels
Sampling rate : 48.0 KHz
Compression mode : Lossy
Stream size : 121 MiB (8%)
Alignment : Aligned on interleaves
Interleave, duration : 24 ms (0.60 video frame)
Interleave, preload duration : 509 ms
General
Complete name : /Volumes/data/Other/Low-Flying Aircraft (2002)/Low-Flying Aircraft.ENG.srt
Format : SubRip
File size : 33.5 KiB
Text
Format : SubRip
Compression mode : Lossless
General
Complete name : /Volumes/data/Other/Low-Flying Aircraft (2002)/Low-Flying Aircraft.srt
File size : 33.6 KiB

Скриншот c названием фильма

Скриншоты

[teatrix.ru].t12371.torrent 
Торрент: Зарегистрирован [ 2015-12-23 22:10 ] · DAE5C780192DCC9A3335E9A0C9E7CF388AD5FDE0

Скачать .torrent

Скачать

29 KB

Статус: проверено
Скачан: 0 раз
Размер: 1.39 GB
terms.php



Быстрый ответ

Имя:

      
Для отправки сообщений необходимо включить JavaScript
Показать сообщения:    

Текущее время: 08-Дек 09:05

Часовой пояс: UTC + 3


Вы можете начинать темы
Вы можете отвечать на сообщения
Вы не можете редактировать свои сообщения
Вы не можете удалять свои сообщения
Вы не можете голосовать в опросах
Вы не можете прикреплять файлы к сообщениям
Вы можете скачивать файлы